  0
SECTION
  2
HEADER
  9
$ACADVER
  1
AC1015
  9
$ACADMAINTVER
 70
    20
  9
$DWGCODEPAGE
  3
ANSI_936
  9
$INSBASE
 10
0.0
 20
0.0
 30
0.0
  9
$EXTMIN
 10
1264.622861235937
 20
56.10966300644316
 30
0.0
  9
$EXTMAX
 10
1512.698243849493
 20
280.0012765831139
 30
0.0
  9
$LIMMIN
 10
0.0
 20
0.0
  9
$LIMMAX
 10
12.0
 20
9.0
  9
$ORTHOMODE
 70
     1
  9
$REGENMODE
 70
     1
  9
$FILLMODE
 70
     1
  9
$QTEXTMODE
 70
     0
  9
$MIRRTEXT
 70
     0
  9
$LTSCALE
 40
1.0
  9
$ATTMODE
 70
     1
  9
$TEXTSIZE
 40
0.2
  9
$TRACEWID
 40
0.05
  9
$TEXTSTYLE
  7
STANDARD
  9
$CLAYER
  8
标注
  9
$CELTYPE
  6
ByLayer
  9
$CECOLOR
 62
   256
  9
$CELTSCALE
 40
1.0
  9
$DISPSILH
 70
     0
  9
$DIMSCALE
 40
1.0
  9
$DIMASZ
 40
0.65
  9
$DIMEXO
 40
0.88
  9
$DIMDLI
 40
0.015
  9
$DIMRND
 40
0.0
  9
$DIMDLE
 40
0.0
  9
$DIMEXE
 40
0.32
  9
$DIMTP
 40
0.0
  9
$DIMTM
 40
0.0
  9
$DIMTXT
 40
0.65
  9
$DIMCEN
 40
0.09
  9
$DIMTSZ
 40
0.0
  9
$DIMTOL
 70
     0
  9
$DIMLIM
 70
     0
  9
$DIMTIH
 70
     0
  9
$DIMTOH
 70
     0
  9
$DIMSE1
 70
     0
  9
$DIMSE2
 70
     0
  9
$DIMTAD
 70
     0
  9
$DIMZIN
 70
     8
  9
$DIMBLK
  1

  9
$DIMASO
 70
     1
  9
$DIMSHO
 70
     1
  9
$DIMPOST
  1
"
  9
$DIMAPOST
  1
"
  9
$DIMALT
 70
     0
  9
$DIMALTD
 70
     1
  9
$DIMALTF
 40
0.03937
  9
$DIMLFAC
 40
1.0
  9
$DIMTOFL
 70
     1
  9
$DIMTVP
 40
0.0
  9
$DIMTIX
 70
     0
  9
$DIMSOXD
 70
     0
  9
$DIMSAH
 70
     0
  9
$DIMBLK1
  1

  9
$DIMBLK2
  1

  9
$DIMSTYLE
  2
副本STANDARD
  9
$DIMCLRD
 70
   256
  9
$DIMCLRE
 70
   256
  9
$DIMCLRT
 70
   256
  9
$DIMTFAC
 40
1.0
  9
$DIMGAP
 40
0.3
  9
$DIMJUST
 70
     0
  9
$DIMSD1
 70
     0
  9
$DIMSD2
 70
     0
  9
$DIMTOLJ
 70
     1
  9
$DIMTZIN
 70
     8
  9
$DIMALTZ
 70
     8
  9
$DIMALTTZ
 70
     8
  9
$DIMUPT
 70
     0
  9
$DIMDEC
 70
     3
  9
$DIMTDEC
 70
     3
  9
$DIMALTU
 70
     2
  9
$DIMALTTD
 70
     1
  9
$DIMTXSTY
  7
STANDARD
  9
$DIMAUNIT
 70
     0
  9
$DIMADEC
 70
     0
  9
$DIMALTRND
 40
0.0
  9
$DIMAZIN
 70
     0
  9
$DIMDSEP
 70
    46
  9
$DIMATFIT
 70
     3
  9
$DIMFRAC
 70
     2
  9
$DIMLDRBLK
  1

  9
$DIMLUNIT
 70
     5
  9
$DIMLWD
 70
    -2
  9
$DIMLWE
 70
    -2
  9
$DIMTMOVE
 70
     2
  9
$LUNITS
 70
     2
  9
$LUPREC
 70
     4
  9
$SKETCHINC
 40
0.1
  9
$FILLETRAD
 40
0.0
  9
$AUNITS
 70
     0
  9
$AUPREC
 70
     0
  9
$MENU
  1
.
  9
$ELEVATION
 40
0.0
  9
$PELEVATION
 40
0.0
  9
$THICKNESS
 40
0.0
  9
$LIMCHECK
 70
     0
  9
$CHAMFERA
 40
0.0
  9
$CHAMFERB
 40
0.0
  9
$CHAMFERC
 40
0.0
  9
$CHAMFERD
 40
0.0
  9
$SKPOLY
 70
     0
  9
$TDCREATE
 40
2455434.724808658
  9
$TDUCREATE
 40
2455434.391475324
  9
$TDUPDATE
 40
2458649.577466690
  9
$TDUUPDATE
 40
2458649.244133357
  9
$TDINDWG
 40
0.9712639699
  9
$TDUSRTIMER
 40
0.9712462153
  9
$USRTIMER
 70
     1
  9
$ANGBASE
 50
0.0
  9
$ANGDIR
 70
     0
  9
$PDMODE
 70
     0
  9
$PDSIZE
 40
0.0
  9
$PLINEWID
 40
0.0
  9
$SPLFRAME
 70
     0
  9
$SPLINETYPE
 70
     6
  9
$SPLINESEGS
 70
     8
  9
$HANDSEED
  5
8C23
  9
$SURFTAB1
 70
     6
  9
$SURFTAB2
 70
     6
  9
$SURFTYPE
 70
     6
  9
$SURFU
 70
     6
  9
$SURFV
 70
     6
  9
$UCSBASE
  2

  9
$UCSNAME
  2

  9
$UCSORG
 10
0.0
 20
0.0
 30
0.0
  9
$UCSXDIR
 10
1.0
 20
0.0
 30
0.0
  9
$UCSYDIR
 10
0.0
 20
1.0
 30
0.0
  9
$UCSORTHOREF
  2

  9
$UCSORTHOVIEW
 70
     0
  9
$UCSORGTOP
 10
0.0
 20
0.0
 30
0.0
  9
$UCSORGBOTTOM
 10
0.0
 20
0.0
 30
0.0
  9
$UCSORGLEFT
 10
0.0
 20
0.0
 30
0.0
  9
$UCSORGRIGHT
 10
0.0
 20
0.0
 30
0.0
  9
$UCSORGFRONT
 10
0.0
 20
0.0
 30
0.0
  9
$UCSORGBACK
 10
0.0
 20
0.0
 30
0.0
  9
$PUCSBASE
  2

  9
$PUCSNAME
  2

  9
$PUCSORG
 10
0.0
 20
0.0
 30
0.0
  9
$PUCSXDIR
 10
1.0
 20
0.0
 30
0.0
  9
$PUCSYDIR
 10
0.0
 20
1.0
 30
0.0
  9
$PUCSORTHOREF
  2

  9
$PUCSORTHOVIEW
 70
     0
  9
$PUCSORGTOP
 10
0.0
 20
0.0
 30
0.0
  9
$PUCSORGBOTTOM
 10
0.0
 20
0.0
 30
0.0
  9
$PUCSORGLEFT
 10
0.0
 20
0.0
 30
0.0
  9
$PUCSORGRIGHT
 10
0.0
 20
0.0
 30
0.0
  9
$PUCSORGFRONT
 10
0.0
 20
0.0
 30
0.0
  9
$PUCSORGBACK
 10
0.0
 20
0.0
 30
0.0
  9
$USERI1
 70
     0
  9
$USERI2
 70
     0
  9
$USERI3
 70
     0
  9
$USERI4
 70
     0
  9
$USERI5
 70
     0
  9
$USERR1
 40
0.0
  9
$USERR2
 40
0.0
  9
$USERR3
 40
0.0
  9
$USERR4
 40
0.0
  9
$USERR5
 40
2.5
  9
$WORLDVIEW
 70
     1
  9
$SHADEDGE
 70
     3
  9
$SHADEDIF
 70
    70
  9
$TILEMODE
 70
     1
  9
$MAXACTVP
 70
    64
  9
$PINSBASE
 10
0.0
 20
0.0
 30
0.0
  9
$PLIMCHECK
 70
     0
  9
$PEXTMIN
 10
1.000000000000000E+20
 20
1.000000000000000E+20
 30
1.000000000000000E+20
  9
$PEXTMAX
 10
-1.000000000000000E+20
 20
-1.000000000000000E+20
 30
-1.000000000000000E+20
  9
$PLIMMIN
 10
0.0
 20
0.0
  9
$PLIMMAX
 10
12.0
 20
9.0
  9
$UNITMODE
 70
     0
  9
$VISRETAIN
 70
     1
  9
$PLINEGEN
 70
     0
  9
$PSLTSCALE
 70
     1
  9
$TREEDEPTH
 70
  3020
  9
$CMLSTYLE
  2
Standard
  9
$CMLJUST
 70
     0
  9
$CMLSCALE
 40
1.0
  9
$PROXYGRAPHICS
 70
     1
  9
$MEASUREMENT
 70
     0
  9
$CELWEIGHT
370
    -1
  9
$ENDCAPS
280
     0
  9
$JOINSTYLE
280
     0
  9
$LWDISPLAY
290
     0
  9
$INSUNITS
 70
     0
  9
$HYPERLINKBASE
  1

  9
$STYLESHEET
  1

  9
$XEDIT
290
     1
  9
$CEPSNTYPE
380
     0
  9
$PSTYLEMODE
290
     1
  9
$FINGERPRINTGUID
  2
{7BAC09DB-C4D0-41DB-8C07-4C6808ADD930}
  9
$VERSIONGUID
  2
{34B7D423-EF53-4D02-B6DC-43F9A6241708}
  9
$EXTNAMES
290
     1
  9
$PSVPSCALE
 40
0.0
  9
$OLESTARTUP
290
     0
  0
ENDSEC
  0
SECTION
  2
CLASSES
  0
CLASS
  1
ACDBDICTIONARYWDFLT
  2
AcDbDictionaryWithDefault
  3
ObjectDBX Classes
 90
        0
280
     0
281
     0
  0
CLASS
  1
MATERIAL
  2
AcDbMaterial
  3
ObjectDBX Classes
 90
     1153
280
     0
281
     0
  0
CLASS
  1
VISUALSTYLE
  2
AcDbVisualStyle
  3
ObjectDBX Classes
 90
     4095
280
     0
281
     0
  0
CLASS
  1
SCALE
  2
AcDbScale
  3
ObjectDBX Classes
 90
     1153
280
     0
281
     0
  0
CLASS
  1
TABLESTYLE
  2
AcDbTableStyle
  3
ObjectDBX Classes
 90
     4095
280
     0
281
     0
  0
CLASS
  1
MLEADERSTYLE
  2
AcDbMLeaderStyle
  3
ACDB_MLEADERSTYLE_CLASS
 90
     4095
280
     0
281
     0
  0
CLASS
  1
VLO-VL
  2
vlo_VL
  3
VL|AutoLISP based application
 90
      129
280
     0
281
     0
  0
CLASS
  1
DICTIONARYVAR
  2
AcDbDictionaryVar
  3
ObjectDBX Classes
 90
        0
280
     0
281
     0
  0
CLASS
  1
CELLSTYLEMAP
  2
AcDbCellStyleMap
  3
ObjectDBX Classes
 90
     1152
280
     0
281
     0
  0
CLASS
  1
DIMASSOC
  2
AcDbDimAssoc
  3
"AcDbDimAssoc|Product Desc:     AcDim ARX App For Dimension|Company:          Autodesk, Inc.|WEB Address:      www.autodesk.com"
 90
        0
280
     0
281
     0
  0
CLASS
  1
SORTENTSTABLE
  2
AcDbSortentsTable
  3
ObjectDBX Classes
 90
        0
280
     0
281
     0
  0
CLASS
  1
ACDBPLACEHOLDER
  2
AcDbPlaceHolder
  3
ObjectDBX Classes
 90
        0
280
     0
281
     0
  0
CLASS
  1
LAYOUT
  2
AcDbLayout
  3
ObjectDBX Classes
 90
        0
280
     0
281
     0
  0
ENDSEC
  0
SECTION
  2
TABLES
  0
TABLE
  2
VPORT
  5
5F02
330
0
100
AcDbSymbolTable
 70
     1
  0
VPORT
  5
5F73
330
5F02
100
AcDbSymbolTableRecord
100
AcDbViewportTableRecord
  2
*ACTIVE
 70
     0
 10
0.0
 20
0.0
 11
1.0
 21
1.0
 12
1415.980896581614
 22
134.7453291348823
 13
0.0
 23
0.0
 14
0.5
 24
0.5
 15
0.5
 25
0.5
 16
0.0
 26
0.0
 36
1.0
 17
0.0
 27
0.0
 37
0.0
 40
77.08935311036754
 41
1.622972972972972
 42
50.0
 43
0.0
 44
0.0
 50
0.0
 51
0.0
 71
     0
 72
  1000
 73
     1
 74
     3
 75
     0
 76
     0
 77
     0
 78
     0
281
     0
 65
     1
110
0.0
120
0.0
130
0.0
111
1.0
121
0.0
131
0.0
112
0.0
122
1.0
132
0.0
 79
     0
146
0.0
  0
ENDTAB
  0
TABLE
  2
LTYPE
  5
5EFF
330
0
100
AcDbSymbolTable
 70
     6
  0
LTYPE
  5
5F5C
330
5EFF
100
AcDbSymbolTableRecord
100
AcDbLinetypeTableRecord
  2
ByBlock
 70
     0
  3

 72
    65
 73
     0
 40
0.0
  0
LTYPE
  5
5F5D
330
5EFF
100
AcDbSymbolTableRecord
100
AcDbLinetypeTableRecord
  2
ByLayer
 70
     0
  3

 72
    65
 73
     0
 40
0.0
  0
LTYPE
  5
5F5E
330
5EFF
100
AcDbSymbolTableRecord
100
AcDbLinetypeTableRecord
  2
CONTINUOUS
 70
     0
  3
Solid line
 72
    65
 73
     0
 40
0.0
  0
LTYPE
  5
5F74
330
5EFF
100
AcDbSymbolTableRecord
100
AcDbLinetypeTableRecord
  2
CENTER2
 70
     0
  3
Center (.5x) ___ _ ___ _ ___ _ ___ _ ___ _ ___
 72
    65
 73
     4
 40
28.575
 49
19.05
 74
     0
 49
-3.174999999999998
 74
     0
 49
3.174999999999998
 74
     0
 49
-3.174999999999998
 74
     0
  0
LTYPE
  5
5F75
330
5EFF
100
AcDbSymbolTableRecord
100
AcDbLinetypeTableRecord
  2
HIDDEN2
 70
     0
  3
Hidden (.5x) _ _ _ _ _ _ _ _ _ _ _ _ _ _ _ _ _
 72
    65
 73
     2
 40
4.762499999999998
 49
3.174999999999998
 74
     0
 49
-1.587499999999999
 74
     0
  0
LTYPE
  5
891D
330
5EFF
100
AcDbSymbolTableRecord
100
AcDbLinetypeTableRecord
  2
ACAD_ISO02W100
 70
     0
  3
ISO dash __ __ __ __ __ __ __ __ __ __ __ __ __
 72
    65
 73
     2
 40
15.0
 49
12.0
 74
     0
 49
-3.0
 74
     0
  0
ENDTAB
  0
TABLE
  2
LAYER
  5
5EFC
102
{ACAD_XDICTIONARY
360
61B7
102
}
330
0
100
AcDbSymbolTable
 70
     9
  0
LAYER
  5
5F56
102
{ACAD_XDICTIONARY
360
60F4
102
}
330
5EFC
100
AcDbSymbolTableRecord
100
AcDbLayerTableRecord
  2
0
 70
     0
 62
     7
  6
CONTINUOUS
370
    -3
390
5F09
  0
LAYER
  5
5F72
102
{ACAD_XDICTIONARY
360
60F6
102
}
330
5EFC
100
AcDbSymbolTableRecord
100
AcDbLayerTableRecord
  2
标注
 70
     0
 62
    80
  6
CONTINUOUS
370
    -3
390
5F09
  0
LAYER
  5
5F7D
102
{ACAD_XDICTIONARY
360
60F8
102
}
330
5EFC
100
AcDbSymbolTableRecord
100
AcDbLayerTableRecord
  2
中心线
 70
     0
 62
     1
  6
CENTER2
370
    -3
390
5F09
  0
LAYER
  5
5F7E
102
{ACAD_XDICTIONARY
360
60FA
102
}
330
5EFC
100
AcDbSymbolTableRecord
100
AcDbLayerTableRecord
  2
虚线
 70
     0
 62
     4
  6
HIDDEN2
370
    -3
390
5F09
  0
LAYER
  5
5F7F
330
5EFC
100
AcDbSymbolTableRecord
100
AcDbLayerTableRecord
  2
DEFPOINTS
 70
     0
 62
     7
  6
CONTINUOUS
290
     0
370
    -3
390
5F09
  0
LAYER
  5
5F80
102
{ACAD_XDICTIONARY
360
60FC
102
}
330
5EFC
100
AcDbSymbolTableRecord
100
AcDbLayerTableRecord
  2
细实线
 70
     0
 62
     7
  6
CONTINUOUS
370
    -3
390
5F09
  0
LAYER
  5
776F
330
5EFC
100
AcDbSymbolTableRecord
100
AcDbLayerTableRecord
  2
标注线
 70
     0
 62
     3
  6
CONTINUOUS
370
     9
390
5F09
  0
ENDTAB
  0
TABLE
  2
STYLE
  5
5EFD
330
0
100
AcDbSymbolTable
 70
     2
  0
STYLE
  5
5F57
330
5EFD
100
AcDbSymbolTableRecord
100
AcDbTextStyleTableRecord
  2
STANDARD
 70
     0
 40
0.0
 41
1.0
 50
0.0
 71
     0
 42
0.2
  3
arial.ttf
  4

1001
ACAD
1000
Arial
1071
       34
  0
STYLE
  5
7201
330
5EFD
100
AcDbSymbolTableRecord
100
AcDbTextStyleTableRecord
  2
Arial
 70
     0
 40
0.0
 41
1.0
 50
0.0
 71
     0
 42
0.2
  3
arial.ttf
  4

1001
ACAD
1000
Arial
1071
       34
  0
ENDTAB
  0
TABLE
  2
VIEW
  5
5F00
330
0
100
AcDbSymbolTable
 70
     0
  0
ENDTAB
  0
TABLE
  2
UCS
  5
5F01
330
0
100
AcDbSymbolTable
 70
     0
  0
ENDTAB
  0
TABLE
  2
APPID
  5
5F03
330
0
100
AcDbSymbolTable
 70
    30
  0
APPID
  5
5F58
330
5F03
100
AcDbSymbolTableRecord
100
AcDbRegAppTableRecord
  2
ACAD
 70
     0
  0
APPID
  5
5F5F
330
5F03
100
AcDbSymbolTableRecord
100
AcDbRegAppTableRecord
  2
ACADANNOTATIVE
 70
     0
  0
APPID
  5
5F69
330
5F03
100
AcDbSymbolTableRecord
100
AcDbRegAppTableRecord
  2
ACAD_MLEADERVER
 70
     0
  0
APPID
  5
5F84
330
5F03
100
AcDbSymbolTableRecord
100
AcDbRegAppTableRecord
  2
ACAECLAYERSTANDARD
 70
     0
  0
APPID
  5
5F85
330
5F03
100
AcDbSymbolTableRecord
100
AcDbRegAppTableRecord
  2
ACAD_DSTYLE_DIMEXT_LENGTH
 70
     0
  0
APPID
  5
5F86
330
5F03
100
AcDbSymbolTableRecord
100
AcDbRegAppTableRecord
  2
ACAD_DSTYLE_DIMEXT_ENABLED
 70
     0
  0
APPID
  5
5F87
330
5F03
100
AcDbSymbolTableRecord
100
AcDbRegAppTableRecord
  2
ACAD_DSTYLE_DIMJOGGED_JOGA
 70
     0
  0
APPID
  5
5F88
330
5F03
100
AcDbSymbolTableRecord
100
AcDbRegAppTableRecord
  2
ACAD_DSTYLE_DIMARC_LENGTH_
 70
     0
  0
APPID
  5
5F89
330
5F03
100
AcDbSymbolTableRecord
100
AcDbRegAppTableRecord
  2
ACAD_PSEXT
 70
     0
  0
APPID
  5
5F8A
330
5F03
100
AcDbSymbolTableRecord
100
AcDbRegAppTableRecord
  2
MCAD_NO_VIS
 70
     0
  0
APPID
  5
5F8B
330
5F03
100
AcDbSymbolTableRecord
100
AcDbRegAppTableRecord
  2
ACAD_TEMP_GRAPHIC
 70
     0
  0
APPID
  5
5F8C
330
5F03
100
AcDbSymbolTableRecord
100
AcDbRegAppTableRecord
  2
AD_DRAW
 70
     0
  0
APPID
  5
5F8D
330
5F03
100
AcDbSymbolTableRecord
100
AcDbRegAppTableRecord
  2
ACATTRIBSERVICES
 70
     0
  0
APPID
  5
5F8E
330
5F03
100
AcDbSymbolTableRecord
100
AcDbRegAppTableRecord
  2
DESIGNERASSEMBLIES
 70
     0
  0
APPID
  5
5F8F
330
5F03
100
AcDbSymbolTableRecord
100
AcDbRegAppTableRecord
  2
ACADM_DIM_EDIT
 70
     0
  0
APPID
  5
5F90
330
5F03
100
AcDbSymbolTableRecord
100
AcDbRegAppTableRecord
  2
AMDT_DM_ADJ
 70
     0
  0
APPID
  5
5F91
330
5F03
100
AcDbSymbolTableRecord
100
AcDbRegAppTableRecord
  2
ACAD_DSTYLE_DIMJAG
 70
     0
  0
APPID
  5
5F92
330
5F03
100
AcDbSymbolTableRecord
100
AcDbRegAppTableRecord
  2
ACAD_DSTYLE_DIMBREAK
 70
     0
  0
APPID
  5
5F93
330
5F03
100
AcDbSymbolTableRecord
100
AcDbRegAppTableRecord
  2
ACAD_DSTYLE_DIMTALN
 70
     0
  0
APPID
  5
5F94
330
5F03
100
AcDbSymbolTableRecord
100
AcDbRegAppTableRecord
  2
GENIUS_GENODEF_13
 70
     0
  0
APPID
  5
5F95
330
5F03
100
AcDbSymbolTableRecord
100
AcDbRegAppTableRecord
  2
GENIUS_GENOBJ-N-FIL_13
 70
     0
  0
APPID
  5
5F96
330
5F03
100
AcDbSymbolTableRecord
100
AcDbRegAppTableRecord
  2
ACAD_EXEMPT_FROM_CAD_STANDARDS
 70
     0
  0
APPID
  5
5F97
330
5F03
100
AcDbSymbolTableRecord
100
AcDbRegAppTableRecord
  2
ACAD_DSTYLE_DIM_LINETYPE
 70
     0
  0
APPID
  5
5F98
330
5F03
100
AcDbSymbolTableRecord
100
AcDbRegAppTableRecord
  2
ACAD_DSTYLE_DIM_EXT1_LINETYPE
 70
     0
  0
APPID
  5
5F99
330
5F03
100
AcDbSymbolTableRecord
100
AcDbRegAppTableRecord
  2
ACAD_DSTYLE_DIM_EXT2_LINETYPE
 70
     0
  0
APPID
  5
5F9A
330
5F03
100
AcDbSymbolTableRecord
100
AcDbRegAppTableRecord
  2
ACAD_DSTYLE_DIMRADIAL_EXTENSION
 70
     0
  0
APPID
  5
6488
330
5F03
100
AcDbSymbolTableRecord
100
AcDbRegAppTableRecord
  2
AcadAnnoPO
 70
     0
  0
APPID
  5
7772
330
5F03
100
AcDbSymbolTableRecord
100
AcDbRegAppTableRecord
  2
ACAD_DSTYLE_DIMJOGGED_JOGANGLE_SYMBOL
 70
     0
  0
APPID
  5
8921
330
5F03
100
AcDbSymbolTableRecord
100
AcDbRegAppTableRecord
  2
GENIUS_GENREC_14
 70
     0
  0
APPID
  5
8922
330
5F03
100
AcDbSymbolTableRecord
100
AcDbRegAppTableRecord
  2
GENIUS_GENOBJ-N-REC_13
 70
     0
  0
ENDTAB
  0
TABLE
  2
DIMSTYLE
  5
5F04
330
0
100
AcDbSymbolTable
 70
    20
100
AcDbDimStyleTable
 71
     2
340
5F9B
340
5F59
  0
DIMSTYLE
105
5F59
330
5F04
100
AcDbSymbolTableRecord
100
AcDbDimStyleTableRecord
  2
STANDARD
 70
     0
 41
0.65
 73
     0
 74
     0
140
0.65
176
     3
177
     3
178
     3
271
     3
272
     3
276
     2
277
     5
279
     2
284
     8
285
     8
286
     8
340
5F57
371
    13
372
    13
1001
ACAD_DSTYLE_DIMJAG
1070
   388
1040
1.5
1001
ACAD_DSTYLE_DIMTALN
1070
   392
1070
     0
1001
ACAD_DSTYLE_DIM_LINETYPE
1070
   380
1005
5F5E
1001
ACAD_DSTYLE_DIM_EXT1_LINETYPE
1070
   381
1005
5F5E
1001
ACAD_DSTYLE_DIM_EXT2_LINETYPE
1070
   382
1005
5F5E
  0
DIMSTYLE
105
5F9B
102
{ACAD_REACTORS
330
89FC
330
89FF
330
8A00
330
8A03
330
8A0A
330
8A0D
330
89B3
330
89B6
330
89B9
330
89BC
102
}
330
5F04
100
AcDbSymbolTableRecord
100
AcDbDimStyleTableRecord
  2
副本STANDARD
 70
     0
  3
"
  4
"
 41
0.65
 42
0.88
 43
0.015
 44
0.32
 73
     0
 74
     0
 78
     8
140
0.65
143
0.03937
147
0.3
171
     1
172
     1
176
   256
177
   256
178
   256
271
     3
272
     3
274
     1
276
     2
277
     5
279
     2
284
     8
285
     8
286
     8
340
5F57
1001
ACAD_DSTYLE_DIMJAG
1070
   388
1040
1.5
1001
ACAD_DSTYLE_DIMTALN
1070
   392
1070
     0
  0
DIMSTYLE
105
848C
330
5F04
100
AcDbSymbolTableRecord
100
AcDbDimStyleTableRecord
  2
副本Standard$0
 70
     0
  4
"
 41
16.0
 42
20.0
 44
7.0
 73
     0
 74
     0
 78
     8
 79
     2
140
20.0
143
0.03937
147
5.0
171
     3
172
     1
176
   256
177
   256
178
   256
179
     1
271
     1
272
     1
273
     7
274
     3
278
    44
340
5F57
1001
ACAD_DSTYLE_DIMBREAK
1070
   391
1040
0.125
1001
ACAD_DSTYLE_DIMJAG
1070
   388
1040
1.5
  0
DIMSTYLE
105
891E
330
5F04
100
AcDbSymbolTableRecord
100
AcDbDimStyleTableRecord
  2
ISO-25
 70
     0
 41
15.0
 42
10.0
 43
3.75
 44
4.0
 73
     0
 74
     0
 78
     8
 79
     2
140
18.0
141
2.5
143
0.03937007874016
147
5.0
171
     3
172
     1
176
     6
177
     6
178
     7
271
     1
272
     1
274
     3
278
    44
283
     0
284
     8
340
5F57
371
    15
372
    15
1001
ACAD_DSTYLE_DIMEXT_LENGTH
1070
   378
1040
1.25
1001
ACAD_DSTYLE_DIMJOGGED_JOGANGLE_SYMBOL
1070
   384
1040
1.570796326794896
  0
DIMSTYLE
105
891F
330
5F04
100
AcDbSymbolTableRecord
100
AcDbDimStyleTableRecord
  2
副本ISO-25
 70
     0
 41
15.0
 42
0.625
 43
3.75
 44
1.25
 73
     0
 77
     1
 78
     8
140
15.0
141
2.5
143
0.03937007874016
147
0.625
170
     1
171
     1
172
     1
176
     6
177
     6
271
     2
272
     2
274
     1
278
    44
283
     0
284
     8
340
5F57
371
    15
372
    15
  0
DIMSTYLE
105
8920
330
5F04
100
AcDbSymbolTableRecord
100
AcDbDimStyleTableRecord
  2
毫米英寸Standard
 70
     0
  3
mm
  4
"
 41
14.0
 42
20.0
 44
8.0
 73
     0
 74
     0
 78
     8
 79
     2
140
14.0
143
0.03937
147
8.0
170
     1
171
     3
172
     1
176
     3
177
     3
178
     3
179
     1
271
     1
272
     1
273
     7
274
     3
278
    44
340
5F57
371
     5
372
     5
1001
ACAD_DSTYLE_DIMBREAK
1070
   391
1040
0.125
1001
ACAD_DSTYLE_DIMJAG
1070
   388
1040
1.5
1001
ACAD_DSTYLE_DIMTALN
1070
   392
1070
     0
  0
ENDTAB
  0
TABLE
  2
BLOCK_RECORD
  5
5EFB
330
0
100
AcDbSymbolTable
 70
   175
  0
BLOCK_RECORD
  5
5F6E
102
{ACAD_XDICTIONARY
360
654F
102
}
330
5EFB
100
AcDbSymbolTableRecord
100
AcDbBlockTableRecord
  2
*Model_Space
340
5F71
  0
BLOCK_RECORD
  5
5F6A
330
5EFB
100
AcDbSymbolTableRecord
100
AcDbBlockTableRecord
  2
*Paper_Space
340
5F6D
  0
BLOCK_RECORD
  5
860F
330
5EFB
100
AcDbSymbolTableRecord
100
AcDbBlockTableRecord
  2
*D143
340
0
  0
BLOCK_RECORD
  5
861D
330
5EFB
100
AcDbSymbolTableRecord
100
AcDbBlockTableRecord
  2
*D144
340
0
  0
BLOCK_RECORD
  5
862A
330
5EFB
100
AcDbSymbolTableRecord
100
AcDbBlockTableRecord
  2
*D145
340
0
  0
BLOCK_RECORD
  5
8637
330
5EFB
100
AcDbSymbolTableRecord
100
AcDbBlockTableRecord
  2
*D146
340
0
  0
BLOCK_RECORD
  5
8644
330
5EFB
100
AcDbSymbolTableRecord
100
AcDbBlockTableRecord
  2
*D147
340
0
  0
BLOCK_RECORD
  5
8651
330
5EFB
100
AcDbSymbolTableRecord
100
AcDbBlockTableRecord
  2
*D148
340
0
  0
BLOCK_RECORD
  5
865F
330
5EFB
100
AcDbSymbolTableRecord
100
AcDbBlockTableRecord
  2
*D149
340
0
  0
BLOCK_RECORD
  5
8677
330
5EFB
100
AcDbSymbolTableRecord
100
AcDbBlockTableRecord
  2
*D150
340
0
  0
BLOCK_RECORD
  5
8685
330
5EFB
100
AcDbSymbolTableRecord
100
AcDbBlockTableRecord
  2
*D151
340
0
  0
BLOCK_RECORD
  5
86BA
330
5EFB
100
AcDbSymbolTableRecord
100
AcDbBlockTableRecord
  2
*D152
340
0
  0
BLOCK_RECORD
  5
8891
330
5EFB
100
AcDbSymbolTableRecord
100
AcDbBlockTableRecord
  2
*D153
340
0
  0
BLOCK_RECORD
  5
889F
330
5EFB
100
AcDbSymbolTableRecord
100
AcDbBlockTableRecord
  2
*D154
340
0
  0
BLOCK_RECORD
  5
88AD
330
5EFB
100
AcDbSymbolTableRecord
100
AcDbBlockTableRecord
  2
*D155
340
0
  0
BLOCK_RECORD
  5
88BB
330
5EFB
100
AcDbSymbolTableRecord
100
AcDbBlockTableRecord
  2
*D156
340
0
  0
BLOCK_RECORD
  5
88C9
330
5EFB
100
AcDbSymbolTableRecord
100
AcDbBlockTableRecord
  2
*D157
340
0
  0
BLOCK_RECORD
  5
88D7
330
5EFB
100
AcDbSymbolTableRecord
100
AcDbBlockTableRecord
  2
*D158
340
0
  0
BLOCK_RECORD
  5
88E5
330
5EFB
100
AcDbSymbolTableRecord
100
AcDbBlockTableRecord
  2
*D159
340
0
  0
BLOCK_RECORD
  5
88F3
330
5EFB
100
AcDbSymbolTableRecord
100
AcDbBlockTableRecord
  2
*D160
340
0
  0
BLOCK_RECORD
  5
8901
330
5EFB
100
AcDbSymbolTableRecord
100
AcDbBlockTableRecord
  2
*D161
340
0
  0
BLOCK_RECORD
  5
890F
330
5EFB
100
AcDbSymbolTableRecord
100
AcDbBlockTableRecord
  2
*D162
340
0
  0
BLOCK_RECORD
  5
8A10
330
5EFB
100
AcDbSymbolTableRecord
100
AcDbBlockTableRecord
  2
*D164
340
0
  0
BLOCK_RECORD
  5
8A1D
330
5EFB
100
AcDbSymbolTableRecord
100
AcDbBlockTableRecord
  2
*D165
340
0
  0
BLOCK_RECORD
  5
8A34
330
5EFB
100
AcDbSymbolTableRecord
100
AcDbBlockTableRecord
  2
*D166
340
0
  0
BLOCK_RECORD
  5
8A41
330
5EFB
100
AcDbSymbolTableRecord
100
AcDbBlockTableRecord
  2
*D167
340
0
  0
BLOCK_RECORD
  5
8A4E
330
5EFB
100
AcDbSymbolTableRecord
100
AcDbBlockTableRecord
  2
*D168
340
0
  0
BLOCK_RECORD
  5
8A5B
330
5EFB
100
AcDbSymbolTableRecord
100
AcDbBlockTableRecord
  2
*D169
340
0
  0
BLOCK_RECORD
  5
8A68
330
5EFB
100
AcDbSymbolTableRecord
100
AcDbBlockTableRecord
  2
*D170
340
0
  0
BLOCK_RECORD
  5
8A75
330
5EFB
100
AcDbSymbolTableRecord
100
AcDbBlockTableRecord
  2
*D171
340
0
  0
BLOCK_RECORD
  5
8A82
330
5EFB
100
AcDbSymbolTableRecord
100
AcDbBlockTableRecord
  2
*D172
340
0
  0
BLOCK_RECORD
  5
8A8F
330
5EFB
100
AcDbSymbolTableRecord
100
AcDbBlockTableRecord
  2
*D173
340
0
  0
ENDTAB
  0
ENDSEC
  0
SECTION
  2
BLOCKS
  0
BLOCK
  5
5F6F
330
5F6E
100
AcDbEntity
  8
0
100
AcDbBlockBegin
  2
*Model_Space
 70
     0
 10
0.0
 20
0.0
 30
0.0
  3
*Model_Space
  1

  0
ENDBLK
  5
5F70
330
5F6E
100
AcDbEntity
  8
0
100
AcDbBlockEnd
  0
BLOCK
  5
5F6B
330
5F6A
100
AcDbEntity
 67
     1
  8
0
100
AcDbBlockBegin
  2
*Paper_Space
 70
     0
 10
0.0
 20
0.0
 30
0.0
  3
*Paper_Space
  1

  0
ENDBLK
  5
5F6C
330
5F6A
100
AcDbEntity
 67
     1
  8
0
100
AcDbBlockEnd
  0
BLOCK
  5
8610
330
860F
100
AcDbEntity
  8
0
100
AcDbBlockBegin
  2
*D143
 70
     1
 10
0.0
 20
0.0
 30
0.0
  3
*D143
  1

  0
LINE
  5
8781
330
860F
100
AcDbEntity
  8
标注
  6
Continuous
370
    -2
100
AcDbLine
 10
1313.712521274906
 20
176.1909182495404
 30
0.0
 11
1317.643538861865
 21
176.1909182495404
 31
0.0
  0
LINE
  5
8782
330
860F
100
AcDbEntity
  8
标注
  6
Continuous
370
    -2
100
AcDbLine
 10
1311.692132288515
 20
166.1909383573768
 30
0.0
 11
1317.643538861865
 21
166.1909383573768
 31
0.0
  0
LINE
  5
8783
330
860F
100
AcDbEntity
  8
标注
  6
Continuous
370
    -2
100
AcDbLine
 10
1317.323538861865
 20
175.5409182495404
 30
0.0
 11
1317.323538861865
 21
172.0863921506619
 31
0.0
  0
LINE
  5
8784
330
860F
100
AcDbEntity
  8
标注
  6
Continuous
370
    -2
100
AcDbLine
 10
1317.323538861865
 20
166.8409383573768
 30
0.0
 11
1317.323538861865
 21
170.2954644562553
 31
0.0
  0
MTEXT
  5
8785
330
860F
100
AcDbEntity
  8
标注
100
AcDbMText
 10
1317.323538861865
 20
171.1909283034588
 30
0.0
 40
0.65
 41
0.0
 71
     5
 72
     1
  1
\A1;10"
 11
0.0000000000000001
 21
1.0
 31
0.0
 73
     1
 44
1.0
1001
ACAD
1000
MTEXTBEGIN
1070
    73
1070
     1
1070
    44
1040
1.0
1070
    74
1070
     0
1000
MTEXTEND
  0
SOLID
  5
8786
330
860F
100
AcDbEntity
  8
标注
100
AcDbTrace
 10
1317.215205528532
 20
175.5409182495404
 30
0.0
 11
1317.431872195199
 21
175.5409182495404
 31
0.0
 12
1317.323538861865
 22
176.1909182495404
 32
0.0
 13
1317.323538861865
 23
176.1909182495404
 33
0.0
  0
SOLID
  5
8787
330
860F
100
AcDbEntity
  8
标注
100
AcDbTrace
 10
1317.215205528532
 20
166.8409383573768
 30
0.0
 11
1317.431872195199
 21
166.8409383573768
 31
0.0
 12
1317.323538861865
 22
166.1909383573768
 32
0.0
 13
1317.323538861865
 23
166.1909383573768
 33
0.0
  0
POINT
  5
8788
330
860F
100
AcDbEntity
  8
DEFPOINTS
 62
     0
100
AcDbPoint
 10
1312.832521274906
 20
176.1909182495404
 30
0.0
  0
POINT
  5
8789
330
860F
100
AcDbEntity
  8
DEFPOINTS
 62
     0
100
AcDbPoint
 10
1310.812132288515
 20
166.1909383573768
 30
0.0
  0
POINT
  5
878A
330
860F
100
AcDbEntity
  8
DEFPOINTS
 62
     0
100
AcDbPoint
 10
1317.323538861865
 20
166.1909383573768
 30
0.0
  0
ENDBLK
  5
8611
330
860F
100
AcDbEntity
  8
0
100
AcDbBlockEnd
  0
BLOCK
  5
861E
330
861D
100
AcDbEntity
  8
0
100
AcDbBlockBegin
  2
*D144
 70
     1
 10
0.0
 20
0.0
 30
0.0
  3
*D144
  1

  0
LINE
  5
86DD
330
861D
100
AcDbEntity
  8
标注
 48
5.0
370
    -2
100
AcDbLine
 10
1312.37394127491
 20
153.4714879729567
 30
0.0
 11
1315.756089483383
 21
153.4714879729567
 31
0.0
  0
LINE
  5
86DE
330
861D
100
AcDbEntity
  8
标注
 48
5.0
370
    -2
100
AcDbLine
 10
1312.37394127491
 20
137.4715199729384
 30
0.0
 11
1315.756089483383
 21
137.4715199729384
 31
0.0
  0
LINE
  5
86DF
330
861D
100
AcDbEntity
  8
标注
 48
5.0
370
    -2
100
AcDbLine
 10
1315.436089483383
 20
152.8214879729567
 30
0.0
 11
1315.436089483383
 21
146.3669678201652
 31
0.0
  0
LINE
  5
86E0
330
861D
100
AcDbEntity
  8
标注
 48
5.0
370
    -2
100
AcDbLine
 10
1315.436089483383
 20
138.1215199729384
 30
0.0
 11
1315.436089483383
 21
144.5760401257587
 31
0.0
  0
MTEXT
  5
86E1
330
861D
100
AcDbEntity
  8
标注
 48
5.0
100
AcDbMText
 10
1315.436089483412
 20
145.4715039729621
 30
0.0
 40
0.65
 41
0.0
 71
     5
 72
     1
  1
\A1;16"
 11
0.0000000000000001
 21
1.0
 31
0.0
 73
     1
 44
1.0
1001
ACAD
1000
MTEXTBEGIN
1070
    73
1070
     1
1070
    44
1040
1.0
1070
    74
1070
     0
1000
MTEXTEND
  0
SOLID
  5
86E2
330
861D
100
AcDbEntity
  8
标注
 48
5.0
100
AcDbTrace
 10
1315.32775615005
 20
152.8214879729567
 30
0.0
 11
1315.544422816716
 21
152.8214879729567
 31
0.0
 12
1315.436089483383
 22
153.4714879729567
 32
0.0
 13
1315.436089483383
 23
153.4714879729567
 33
0.0
  0
SOLID
  5
86E3
330
861D
100
AcDbEntity
  8
标注
 48
5.0
100
AcDbTrace
 10
1315.32775615005
 20
138.1215199729384
 30
0.0
 11
1315.544422816716
 21
138.1215199729384
 31
0.0
 12
1315.436089483383
 22
137.4715199729384
 32
0.0
 13
1315.436089483383
 23
137.4715199729384
 33
0.0
  0
POINT
  5
86E4
330
861D
100
AcDbEntity
  8
DEFPOINTS
 62
     0
 48
5.0
100
AcDbPoint
 10
1311.49394127491
 20
153.4714879729567
 30
0.0
  0
POINT
  5
86E5
330
861D
100
AcDbEntity
  8
DEFPOINTS
 62
     0
 48
5.0
100
AcDbPoint
 10
1311.49394127491
 20
137.4715199729384
 30
0.0
  0
POINT
  5
86E6
330
861D
100
AcDbEntity
  8
DEFPOINTS
 62
     0
 48
5.0
100
AcDbPoint
 10
1315.436089483383
 20
137.4715199729384
 30
0.0
  0
ENDBLK
  5
861F
330
861D
100
AcDbEntity
  8
0
100
AcDbBlockEnd
  0
BLOCK
  5
862B
330
862A
100
AcDbEntity
  8
0
100
AcDbBlockBegin
  2
*D145
 70
     1
 10
0.0
 20
0.0
 30
0.0
  3
*D145
  1

  0
LINE
  5
8805
330
862A
100
AcDbEntity
  8
标注
 48
5.0
370
    -2
100
AcDbLine
 10
1295.993873849906
 20
136.5915199729385
 30
0.0
 11
1295.993873849906
 21
132.2002470845155
 31
0.0
  0
LINE
  5
8806
330
862A
100
AcDbEntity
  8
标注
 48
5.0
370
    -2
100
AcDbLine
 10
1281.493804424902
 20
136.5915199729385
 30
0.0
 11
1281.493804424902
 21
132.2002470845155
 31
0.0
  0
LINE
  5
8807
330
862A
100
AcDbEntity
  8
标注
 48
5.0
370
    -2
100
AcDbLine
 10
1295.343873849906
 20
132.5202470845155
 30
0.0
 11
1291.396599756776
 21
132.5202470845155
 31
0.0
  0
LINE
  5
8808
330
862A
100
AcDbEntity
  8
标注
 48
5.0
370
    -2
100
AcDbLine
 10
1282.143804424902
 20
132.5202470845155
 30
0.0
 11
1288.091074518031
 21
132.5202470845155
 31
0.0
  0
MTEXT
  5
8809
330
862A
100
AcDbEntity
  8
标注
 48
5.0
100
AcDbMText
 10
1289.743837137403
 20
132.5202470845155
 30
0.0
 40
0.65
 41
0.0
 71
     5
 72
     1
  1
\A1;14 1/2"
 73
     1
 44
1.0
1001
ACAD
1000
MTEXTBEGIN
1070
    73
1070
     1
1070
    44
1040
1.0
1070
    74
1070
     0
1000
MTEXTEND
  0
SOLID
  5
880A
330
862A
100
AcDbEntity
  8
标注
 48
5.0
100
AcDbTrace
 10
1295.343873849906
 20
132.6285804178488
 30
0.0
 11
1295.343873849906
 21
132.4119137511821
 31
0.0
 12
1295.993873849906
 22
132.5202470845155
 32
0.0
 13
1295.993873849906
 23
132.5202470845155
 33
0.0
  0
SOLID
  5
880B
330
862A
100
AcDbEntity
  8
标注
 48
5.0
100
AcDbTrace
 10
1282.143804424902
 20
132.6285804178488
 30
0.0
 11
1282.143804424902
 21
132.4119137511821
 31
0.0
 12
1281.493804424902
 22
132.5202470845155
 32
0.0
 13
1281.493804424902
 23
132.5202470845155
 33
0.0
  0
POINT
  5
880C
330
862A
100
AcDbEntity
  8
DEFPOINTS
 62
     0
 48
5.0
100
AcDbPoint
 10
1295.993873849906
 20
137.4715199729384
 30
0.0
  0
POINT
  5
880D
330
862A
100
AcDbEntity
  8
DEFPOINTS
 62
     0
 48
5.0
100
AcDbPoint
 10
1281.493804424902
 20
137.4715199729384
 30
0.0
  0
POINT
  5
880E
330
862A
100
AcDbEntity
  8
DEFPOINTS
 62
     0
 48
5.0
100
AcDbPoint
 10
1281.493804424902
 20
132.5202470845155
 30
0.0
  0
ENDBLK
  5
862C
330
862A
100
AcDbEntity
  8
0
100
AcDbBlockEnd
  0
BLOCK
  5
8638
330
8637
100
AcDbEntity
  8
0
100
AcDbBlockBegin
  2
*D146
 70
     1
 10
0.0
 20
0.0
 30
0.0
  3
*D146
  1

  0
LINE
  5
880F
330
8637
100
AcDbEntity
  8
标注
 48
5.0
370
    -2
100
AcDbLine
 10
1312.93094627491
 20
134.0915249729474
 30
0.0
 11
1312.93094627491
 21
130.4437306777841
 31
0.0
  0
LINE
  5
8810
330
8637
100
AcDbEntity
  8
标注
 48
5.0
370
    -2
100
AcDbLine
 10
1280.056799424916
 20
134.0915249729474
 30
0.0
 11
1280.056799424916
 21
130.4437306777841
 31
0.0
  0
LINE
  5
8811
330
8637
100
AcDbEntity
  8
标注
 48
5.0
370
    -2
100
AcDbLine
 10
1312.28094627491
 20
130.7637306777841
 30
0.0
 11
1298.177007229176
 21
130.7637306777841
 31
0.0
  0
LINE
  5
8812
330
8637
100
AcDbEntity
  8
标注
 48
5.0
370
    -2
100
AcDbLine
 10
1280.706799424916
 20
130.7637306777841
 30
0.0
 11
1294.81073847065
 21
130.7637306777841
 31
0.0
  0
MTEXT
  5
8813
330
8637
100
AcDbEntity
  8
标注
 48
5.0
100
AcDbMText
 10
1296.493872849913
 20
130.7637306777841
 30
0.0
 40
0.65
 41
0.0
 71
     5
 72
     1
  1
\A1;32 7/8"
 73
     1
 44
1.0
1001
ACAD
1000
MTEXTBEGIN
1070
    73
1070
     1
1070
    44
1040
1.0
1070
    74
1070
     0
1000
MTEXTEND
  0
SOLID
  5
8814
330
8637
100
AcDbEntity
  8
标注
 48
5.0
100
AcDbTrace
 10
1312.28094627491
 20
130.8720640111174
 30
0.0
 11
1312.28094627491
 21
130.6553973444508
 31
0.0
 12
1312.93094627491
 22
130.7637306777841
 32
0.0
 13
1312.93094627491
 23
130.7637306777841
 33
0.0
  0
SOLID
  5
8815
330
8637
100
AcDbEntity
  8
标注
 48
5.0
100
AcDbTrace
 10
1280.706799424916
 20
130.8720640111174
 30
0.0
 11
1280.706799424916
 21
130.6553973444508
 31
0.0
 12
1280.056799424916
 22
130.7637306777841
 32
0.0
 13
1280.056799424916
 23
130.7637306777841
 33
0.0
  0
POINT
  5
8816
330
8637
100
AcDbEntity
  8
DEFPOINTS
 62
     0
 48
5.0
100
AcDbPoint
 10
1312.93094627491
 20
134.9715249729474
 30
0.0
  0
POINT
  5
8817
330
8637
100
AcDbEntity
  8
DEFPOINTS
 62
     0
 48
5.0
100
AcDbPoint
 10
1280.056799424916
 20
134.9715249729474
 30
0.0
  0
POINT
  5
8818
330
8637
100
AcDbEntity
  8
DEFPOINTS
 62
     0
 48
5.0
100
AcDbPoint
 10
1280.056799424916
 20
130.7637306777841
 30
0.0
  0
ENDBLK
  5
8639
330
8637
100
AcDbEntity
  8
0
100
AcDbBlockEnd
  0
BLOCK
  5
8645
330
8644
100
AcDbEntity
  8
0
100
AcDbBlockBegin
  2
*D147
 70
     1
 10
0.0
 20
0.0
 30
0.0
  3
*D147
  1

  0
LINE
  5
876D
330
8644
100
AcDbEntity
  8
标注
  6
Continuous
370
    -2
100
AcDbLine
 10
1313.81094627491
 20
154.9714849729339
 30
0.0
 11
1319.500571694496
 21
154.9714849729339
 31
0.0
  0
LINE
  5
876E
330
8644
100
AcDbEntity
  8
标注
  6
Continuous
370
    -2
100
AcDbLine
 10
1297.373872849913
 20
134.2215264729588
 30
0.0
 11
1319.500571694496
 21
134.2215264729588
 31
0.0
  0
LINE
  5
876F
330
8644
100
AcDbEntity
  8
标注
  6
Continuous
370
    -2
100
AcDbLine
 10
1319.180571694497
 20
154.3214849729339
 30
0.0
 11
1319.180571694497
 21
146.2854040858675
 31
0.0
  0
LINE
  5
8770
330
8644
100
AcDbEntity
  8
标注
  6
Continuous
370
    -2
100
AcDbLine
 10
1319.180571694497
 20
134.8715264729588
 30
0.0
 11
1319.180571694497
 21
142.907607360083
 31
0.0
  0
MTEXT
  5
8771
330
8644
100
AcDbEntity
  8
标注
100
AcDbMText
 10
1319.180571694526
 20
144.5965057229755
 30
0.0
 40
0.65
 41
0.0
 71
     5
 72
     1
  1
\A1;20 3/4"
 11
0.0000000000000001
 21
1.0
 31
0.0
 73
     1
 44
1.0
1001
ACAD
1000
MTEXTBEGIN
1070
    73
1070
     1
1070
    44
1040
1.0
1070
    74
1070
     0
1000
MTEXTEND
  0
SOLID
  5
8772
330
8644
100
AcDbEntity
  8
标注
100
AcDbTrace
 10
1319.072238361163
 20
154.3214849729339
 30
0.0
 11
1319.28890502783
 21
154.3214849729339
 31
0.0
 12
1319.180571694497
 22
154.9714849729339
 32
0.0
 13
1319.180571694497
 23
154.9714849729339
 33
0.0
  0
SOLID
  5
8773
330
8644
100
AcDbEntity
  8
标注
100
AcDbTrace
 10
1319.072238361163
 20
134.8715264729588
 30
0.0
 11
1319.28890502783
 21
134.8715264729588
 31
0.0
 12
1319.180571694497
 22
134.2215264729588
 32
0.0
 13
1319.180571694497
 23
134.2215264729588
 33
0.0
  0
POINT
  5
8774
330
8644
100
AcDbEntity
  8
DEFPOINTS
 62
     0
100
AcDbPoint
 10
1312.93094627491
 20
154.9714849729339
 30
0.0
  0
POINT
  5
8775
330
8644
100
AcDbEntity
  8
DEFPOINTS
 62
     0
100
AcDbPoint
 10
1296.493872849913
 20
134.2215264729588
 30
0.0
  0
POINT
  5
8776
330
8644
100
AcDbEntity
  8
DEFPOINTS
 62
     0
100
AcDbPoint
 10
1319.180571694497
 20
134.2215264729588
 30
0.0
  0
ENDBLK
  5
8646
330
8644
100
AcDbEntity
  8
0
100
AcDbBlockEnd
  0
BLOCK
  5
8652
330
8651
100
AcDbEntity
  8
0
100
AcDbBlockBegin
  2
*D148
 70
     1
 10
0.0
 20
0.0
 30
0.0
  3
*D148
  1

  0
LINE
  5
8777
330
8651
100
AcDbEntity
  8
标注
  6
Continuous
370
    -2
100
AcDbLine
 10
1313.712521274906
 20
176.1909182495404
 30
0.0
 11
1315.710350809861
 21
176.1909182495404
 31
0.0
  0
LINE
  5
8778
330
8651
100
AcDbEntity
  8
标注
  6
Continuous
370
    -2
100
AcDbLine
 10
1313.712521274906
 20
167.1909362495319
 30
0.0
 11
1315.710350809861
 21
167.1909362495319
 31
0.0
  0
LINE
  5
8779
330
8651
100
AcDbEntity
  8
标注
  6
Continuous
370
    -2
100
AcDbLine
 10
1315.390350809861
 20
175.5409182495404
 30
0.0
 11
1315.390350809861
 21
172.3644777270259
 31
0.0
  0
LINE
  5
877A
330
8651
100
AcDbEntity
  8
标注
  6
Continuous
370
    -2
100
AcDbLine
 10
1315.390350809861
 20
167.8409362495319
 30
0.0
 11
1315.390350809861
 21
171.0173767720464
 31
0.0
  0
SOLID
  5
877B
330
8651
100
AcDbEntity
  8
标注
100
AcDbTrace
 10
1315.282017476528
 20
175.5409182495404
 30
0.0
 11
1315.498684143195
 21
175.5409182495404
 31
0.0
 12
1315.390350809861
 22
176.1909182495404
 32
0.0
 13
1315.390350809861
 23
176.1909182495404
 33
0.0
  0
SOLID
  5
877C
330
8651
100
AcDbEntity
  8
标注
100
AcDbTrace
 10
1315.282017476528
 20
167.8409362495319
 30
0.0
 11
1315.498684143195
 21
167.8409362495319
 31
0.0
 12
1315.390350809861
 22
167.1909362495319
 32
0.0
 13
1315.390350809861
 23
167.1909362495319
 33
0.0
  0
MTEXT
  5
877D
330
8651
100
AcDbEntity
  8
标注
100
AcDbMText
 10
1315.390350809861
 20
171.6909272495364
 30
0.0
 40
0.65
 41
0.0
 71
     5
 72
     1
  1
\A1;9"
 11
0.0000000000000001
 21
1.0
 31
0.0
 73
     1
 44
1.0
1001
ACAD
1000
MTEXTBEGIN
1070
    73
1070
     1
1070
    44
1040
1.0
1070
    74
1070
     0
1000
MTEXTEND
  0
POINT
  5
877E
330
8651
100
AcDbEntity
  8
DEFPOINTS
 62
     0
100
AcDbPoint
 10
1312.832521274906
 20
176.1909182495404
 30
0.0
  0
POINT
  5
877F
330
8651
100
AcDbEntity
  8
DEFPOINTS
 62
     0
100
AcDbPoint
 10
1312.832521274906
 20
167.1909362495319
 30
0.0
  0
POINT
  5
8780
330
8651
100
AcDbEntity
  8
DEFPOINTS
 62
     0
100
AcDbPoint
 10
1315.390350809861
 20
167.1909362495319
 30
0.0
  0
ENDBLK
  5
8653
330
8651
100
AcDbEntity
  8
0
100
AcDbBlockEnd
  0
BLOCK
  5
8660
330
865F
100
AcDbEntity
  8
0
100
AcDbBlockBegin
  2
*D149
 70
     1
 10
0.0
 20
0.0
 30
0.0
  3
*D149
  1

  0
LINE
  5
8819
330
865F
100
AcDbEntity
  8
标注线
 48
5.0
370
    -2
100
AcDbLine
 10
1312.493103582672
 20
115.8323676398272
 30
0.0
 11
1315.202277365724
 21
115.8323676398272
 31
0.0
  0
LINE
  5
881A
330
865F
100
AcDbEntity
  8
标注线
 48
5.0
370
    -2
100
AcDbLine
 10
1312.493103582672
 20
97.13240515890214
 30
0.0
 11
1315.202277365724
 21
97.13240515890214
 31
0.0
  0
LINE
  5
881B
330
865F
100
AcDbEntity
  8
标注线
 48
5.0
370
    -2
100
AcDbLine
 10
1314.882277365724
 20
115.1823676398272
 30
0.0
 11
1314.882277365724
 21
108.1351490187371
 31
0.0
  0
LINE
  5
881C
330
865F
100
AcDbEntity
  8
标注线
 48
5.0
370
    -2
100
AcDbLine
 10
1314.882277365724
 20
97.78240515890216
 30
0.0
 11
1314.882277365724
 21
104.8296237799922
 31
0.0
  0
SOLID
  5
881D
330
865F
100
AcDbEntity
  8
标注线
 48
5.0
100
AcDbTrace
 10
1314.773944032391
 20
115.1823676398272
 30
0.0
 11
1314.990610699058
 21
115.1823676398272
 31
0.0
 12
1314.882277365724
 22
115.8323676398272
 32
0.0
 13
1314.882277365724
 23
115.8323676398272
 33
0.0
  0
SOLID
  5
881E
330
865F
100
AcDbEntity
  8
标注线
 48
5.0
100
AcDbTrace
 10
1314.773944032391
 20
97.78240515890216
 30
0.0
 11
1314.990610699058
 21
97.78240515890216
 31
0.0
 12
1314.882277365724
 22
97.13240515890214
 32
0.0
 13
1314.882277365724
 23
97.13240515890214
 33
0.0
  0
MTEXT
  5
881F
330
865F
100
AcDbEntity
  8
标注线
 48
5.0
100
AcDbMText
 10
1314.882277365724
 20
106.4823863993649
 30
0.0
 40
0.65
 41
0.0
 71
     5
 72
     1
  1
\A1;18 3/4"
 11
0.0000000000000001
 21
1.0
 31
0.0
 73
     1
 44
1.0
1001
ACAD
1000
MTEXTBEGIN
1070
    73
1070
     1
1070
    44
1040
1.0
1070
    74
1070
     0
1000
MTEXTEND
  0
POINT
  5
8820
330
865F
100
AcDbEntity
  8
DEFPOINTS
 62
     0
 48
5.0
100
AcDbPoint
 10
1311.613103582671
 20
115.8323676398272
 30
0.0
  0
POINT
  5
8821
330
865F
100
AcDbEntity
  8
DEFPOINTS
 62
     0
 48
5.0
100
AcDbPoint
 10
1311.613103582671
 20
97.1324051589022
 30
0.0
  0
POINT
  5
8822
330
865F
100
AcDbEntity
  8
DEFPOINTS
 62
     0
 48
5.0
100
AcDbPoint
 10
1314.882277365724
 20
97.13240515890214
 30
0.0
  0
ENDBLK
  5
8661
330
865F
100
AcDbEntity
  8
0
100
AcDbBlockEnd
  0
BLOCK
  5
8678
330
8677
100
AcDbEntity
  8
0
100
AcDbBlockBegin
  2
*D150
 70
     1
 10
0.0
 20
0.0
 30
0.0
  3
*D150
  1

  0
LINE
  5
87DA
330
8677
100
AcDbEntity
  8
标注
  6
Continuous
370
    -2
100
AcDbLine
 10
1279.275224424905
 20
176.1909182495404
 30
0.0
 11
1277.569130957598
 21
176.1909182495404
 31
0.0
  0
LINE
  5
87DB
330
8677
100
AcDbEntity
  8
标注
  6
Continuous
370
    -2
100
AcDbLine
 10
1279.297730332591
 20
166.1907074628655
 30
0.0
 11
1277.569130957598
 21
166.1907074628655
 31
0.0
  0
LINE
  5
87DC
330
8677
100
AcDbEntity
  8
标注
  6
Continuous
370
    -2
100
AcDbLine
 10
1277.889130957598
 20
175.5409182495404
 30
0.0
 11
1277.889130957598
 21
172.0862767034062
 31
0.0
  0
LINE
  5
87DD
330
8677
100
AcDbEntity
  8
标注
  6
Continuous
370
    -2
100
AcDbLine
 10
1277.889130957598
 20
166.8407074628655
 30
0.0
 11
1277.889130957598
 21
170.2953490089997
 31
0.0
  0
SOLID
  5
87DE
330
8677
100
AcDbEntity
  8
标注
100
AcDbTrace
 10
1277.780797624264
 20
175.5409182495404
 30
0.0
 11
1277.997464290931
 21
175.5409182495404
 31
0.0
 12
1277.889130957598
 22
176.1909182495404
 32
0.0
 13
1277.889130957598
 23
176.1909182495404
 33
0.0
  0
SOLID
  5
87DF
330
8677
100
AcDbEntity
  8
标注
100
AcDbTrace
 10
1277.780797624264
 20
166.8407074628655
 30
0.0
 11
1277.997464290931
 21
166.8407074628655
 31
0.0
 12
1277.889130957598
 22
166.1907074628655
 32
0.0
 13
1277.889130957598
 23
166.1907074628655
 33
0.0
  0
MTEXT
  5
87E0
330
8677
100
AcDbEntity
  8
标注
100
AcDbMText
 10
1277.889130957598
 20
171.1908128562031
 30
0.0
 40
0.65
 41
0.0
 71
     5
 72
     1
  1
\A1;10"
 11
0.0000000000000001
 21
1.0
 31
0.0
 73
     1
 44
1.0
1001
ACAD
1000
MTEXTBEGIN
1070
    73
1070
     1
1070
    44
1040
1.0
1070
    74
1070
     0
1000
MTEXTEND
  0
POINT
  5
87E1
330
8677
100
AcDbEntity
  8
DEFPOINTS
 62
     0
100
AcDbPoint
 10
1280.155224424905
 20
176.1909182495404
 30
0.0
  0
POINT
  5
87E2
330
8677
100
AcDbEntity
  8
DEFPOINTS
 62
     0
100
AcDbPoint
 10
1280.177730332592
 20
166.1907074628655
 30
0.0
  0
POINT
  5
87E3
330
8677
100
AcDbEntity
  8
DEFPOINTS
 62
     0
100
AcDbPoint
 10
1277.889130957598
 20
166.1907074628655
 30
0.0
  0
ENDBLK
  5
8679
330
8677
100
AcDbEntity
  8
0
100
AcDbBlockEnd
  0
BLOCK
  5
8686
330
8685
100
AcDbEntity
  8
0
100
AcDbBlockBegin
  2
*D151
 70
     1
 10
0.0
 20
0.0
 30
0.0
  3
*D151
  1

  0
LINE
  5
8823
330
8685
100
AcDbEntity
  8
标注线
 48
5.0
370
    -2
100
AcDbLine
 10
1281.455486732668
 20
96.25240515890221
 30
0.0
 11
1281.455486732668
 21
93.6652988023577
 31
0.0
  0
LINE
  5
8824
330
8685
100
AcDbEntity
  8
标注线
 48
5.0
370
    -2
100
AcDbLine
 10
1311.613103582671
 20
96.25240515890221
 30
0.0
 11
1311.613103582671
 21
93.6652988023577
 31
0.0
  0
LINE
  5
8825
330
8685
100
AcDbEntity
  8
标注线
 48
5.0
370
    -2
100
AcDbLine
 10
1282.105486732668
 20
93.98529880235768
 30
0.0
 11
1294.851160778407
 21
93.98529880235768
 31
0.0
  0
LINE
  5
8826
330
8685
100
AcDbEntity
  8
标注线
 48
5.0
370
    -2
100
AcDbLine
 10
1310.963103582671
 20
93.98529880235768
 30
0.0
 11
1298.217429536933
 21
93.98529880235768
 31
0.0
  0
SOLID
  5
8827
330
8685
100
AcDbEntity
  8
标注线
 48
5.0
100
AcDbTrace
 10
1282.105486732668
 20
94.09363213569099
 30
0.0
 11
1282.105486732668
 21
93.87696546902436
 31
0.0
 12
1281.455486732668
 22
93.98529880235768
 32
0.0
 13
1281.455486732668
 23
93.98529880235768
 33
0.0
  0
SOLID
  5
8828
330
8685
100
AcDbEntity
  8
标注线
 48
5.0
100
AcDbTrace
 10
1310.963103582671
 20
94.09363213569099
 30
0.0
 11
1310.963103582671
 21
93.87696546902436
 31
0.0
 12
1311.613103582671
 22
93.98529880235768
 32
0.0
 13
1311.613103582671
 23
93.98529880235768
 33
0.0
  0
MTEXT
  5
8829
330
8685
100
AcDbEntity
  8
标注线
 48
5.0
100
AcDbMText
 10
1296.53429515767
 20
93.98529880235768
 30
0.0
 40
0.65
 41
0.0
 71
     5
 72
     1
  1
\A1;30 1/8"
 73
     1
 44
1.0
1001
ACAD
1000
MTEXTBEGIN
1070
    73
1070
     1
1070
    44
1040
1.0
1070
    74
1070
     0
1000
MTEXTEND
  0
POINT
  5
882A
330
8685
100
AcDbEntity
  8
DEFPOINTS
 62
     0
 48
5.0
100
AcDbPoint
 10
1281.455486732668
 20
97.1324051589022
 30
0.0
  0
POINT
  5
882B
330
8685
100
AcDbEntity
  8
DEFPOINTS
 62
     0
 48
5.0
100
AcDbPoint
 10
1311.613103582671
 20
97.1324051589022
 30
0.0
  0
POINT
  5
882C
330
8685
100
AcDbEntity
  8
DEFPOINTS
 62
     0
 48
5.0
100
AcDbPoint
 10
1311.613103582671
 20
93.98529880235768
 30
0.0
  0
ENDBLK
  5
8687
330
8685
100
AcDbEntity
  8
0
100
AcDbBlockEnd
  0
BLOCK
  5
86BB
330
86BA
100
AcDbEntity
  8
0
100
AcDbBlockBegin
  2
*D152
 70
     1
 10
0.0
 20
0.0
 30
0.0
  3
*D152
  1

  0
LINE
  5
87FB
330
86BA
100
AcDbEntity
  8
标注线
 48
5.0
370
    -2
100
AcDbLine
 10
1296.993871849905
 20
136.5915199729385
 30
0.0
 11
1296.993871849905
 21
132.2002470845155
 31
0.0
  0
LINE
  5
87FC
330
86BA
100
AcDbEntity
  8
标注线
 48
5.0
370
    -2
100
AcDbLine
 10
1311.49394127491
 20
136.5915199729385
 30
0.0
 11
1311.49394127491
 21
132.2002470845155
 31
0.0
  0
LINE
  5
87FD
330
86BA
100
AcDbEntity
  8
标注线
 48
5.0
370
    -2
100
AcDbLine
 10
1297.643871849906
 20
132.5202470845155
 30
0.0
 11
1302.591143943035
 21
132.5202470845155
 31
0.0
  0
LINE
  5
87FE
330
86BA
100
AcDbEntity
  8
标注线
 48
5.0
370
    -2
100
AcDbLine
 10
1310.84394127491
 20
132.5202470845155
 30
0.0
 11
1305.89666918178
 21
132.5202470845155
 31
0.0
  0
SOLID
  5
87FF
330
86BA
100
AcDbEntity
  8
标注线
 48
5.0
100
AcDbTrace
 10
1297.643871849906
 20
132.6285804178488
 30
0.0
 11
1297.643871849906
 21
132.4119137511821
 31
0.0
 12
1296.993871849905
 22
132.5202470845155
 32
0.0
 13
1296.993871849905
 23
132.5202470845155
 33
0.0
  0
SOLID
  5
8800
330
86BA
100
AcDbEntity
  8
标注线
 48
5.0
100
AcDbTrace
 10
1310.84394127491
 20
132.6285804178488
 30
0.0
 11
1310.84394127491
 21
132.4119137511821
 31
0.0
 12
1311.49394127491
 22
132.5202470845155
 32
0.0
 13
1311.49394127491
 23
132.5202470845155
 33
0.0
  0
MTEXT
  5
8801
330
86BA
100
AcDbEntity
  8
标注线
 48
5.0
100
AcDbMText
 10
1304.243906562408
 20
132.5202470845155
 30
0.0
 40
0.65
 41
0.0
 71
     5
 72
     1
  1
\A1;14 1/2"
 73
     1
 44
1.0
1001
ACAD
1000
MTEXTBEGIN
1070
    73
1070
     1
1070
    44
1040
1.0
1070
    74
1070
     0
1000
MTEXTEND
  0
POINT
  5
8802
330
86BA
100
AcDbEntity
  8
DEFPOINTS
 62
     0
 48
5.0
100
AcDbPoint
 10
1296.993871849905
 20
137.4715199729384
 30
0.0
  0
POINT
  5
8803
330
86BA
100
AcDbEntity
  8
DEFPOINTS
 62
     0
 48
5.0
100
AcDbPoint
 10
1311.49394127491
 20
137.4715199729384
 30
0.0
  0
POINT
  5
8804
330
86BA
100
AcDbEntity
  8
DEFPOINTS
 62
     0
 48
5.0
100
AcDbPoint
 10
1311.49394127491
 20
132.5202470845155
 30
0.0
  0
ENDBLK
  5
86BC
330
86BA
100
AcDbEntity
  8
0
100
AcDbBlockEnd
  0
BLOCK
  5
8892
330
8891
100
AcDbEntity
  8
0
 62
     3
100
AcDbBlockBegin
  2
*D153
 70
     1
 10
0.0
 20
0.0
 30
0.0
  3
*D153
  1

  0
LINE
  5
8893
330
8891
100
AcDbEntity
  8
标注
 62
     3
370
     9
100
AcDbLine
 10
6903.213740807898
 20
-8303.592412381734
 30
0.0
 11
6894.47555472166
 21
-8303.592412381734
 31
0.0
  0
LINE
  5
8894
330
8891
100
AcDbEntity
  8
标注
 62
     3
370
     9
100
AcDbLine
 10
6905.863341807898
 20
-8294.092431381733
 30
0.0
 11
6894.47555472166
 21
-8294.092431381733
 31
0.0
  0
LINE
  5
8895
330
8891
100
AcDbEntity
  8
标注
 62
     3
370
     9
100
AcDbLine
 10
6887.47555472166
 20
-8319.592412381734
 30
0.0
 11
6887.47555472166
 21
-8335.592412381734
 31
0.0
  0
LINE
  5
8896
330
8891
100
AcDbEntity
  8
标注
 62
     3
370
     9
100
AcDbLine
 10
6887.47555472166
 20
-8278.092431381733
 30
0.0
 11
6887.47555472166
 21
-8262.092431381732
 31
0.0
  0
LINE
  5
8897
330
8891
100
AcDbEntity
  8
标注
 62
     3
370
     9
100
AcDbLine
 10
6887.47555472166
 20
-8303.592412381734
 30
0.0
 11
6887.47555472166
 21
-8294.092431381733
 31
0.0
  0
SOLID
  5
8898
330
8891
100
AcDbEntity
  8
标注
 62
     3
100
AcDbTrace
 10
6884.808888054994
 20
-8319.592412381734
 30
0.0
 11
6890.142221388327
 21
-8319.592412381734
 31
0.0
 12
6887.47555472166
 22
-8303.592412381734
 32
0.0
 13
6887.47555472166
 23
-8303.592412381734
 33
0.0
  0
SOLID
  5
8899
330
8891
100
AcDbEntity
  8
标注
 62
     3
100
AcDbTrace
 10
6884.808888054994
 20
-8278.092431381733
 30
0.0
 11
6890.142221388327
 21
-8278.092431381733
 31
0.0
 12
6887.47555472166
 22
-8294.092431381733
 32
0.0
 13
6887.47555472166
 23
-8294.092431381733
 33
0.0
  0
MTEXT
  5
889A
330
8891
100
AcDbEntity
  8
标注
 62
     3
100
AcDbMText
 10
6887.47555472166
 20
-8240.192647675891
 30
0.0
 40
20.0
 41
0.0
 71
     5
 72
     1
  1
\A1;9,5
 11
0.0000000000000001
 21
1.0
 31
0.0
 73
     1
 44
1.0
1001
ACAD
1000
MTEXTBEGIN
1070
    73
1070
     1
1070
    44
1040
1.0
1070
    74
1070
     0
1000
MTEXTEND
  0
POINT
  5
889B
330
8891
100
AcDbEntity
  8
DEFPOINTS
 62
     0
100
AcDbPoint
 10
6883.213740807898
 20
-8303.592412381734
 30
0.0
  0
POINT
  5
889C
330
8891
100
AcDbEntity
  8
DEFPOINTS
 62
     0
100
AcDbPoint
 10
6885.863341807898
 20
-8294.092431381733
 30
0.0
  0
POINT
  5
889D
330
8891
100
AcDbEntity
  8
DEFPOINTS
 62
     0
100
AcDbPoint
 10
6887.47555472166
 20
-8294.092431381733
 30
0.0
  0
ENDBLK
  5
889E
330
8891
100
AcDbEntity
  8
0
 62
     3
100
AcDbBlockEnd
  0
BLOCK
  5
88A0
330
889F
100
AcDbEntity
  8
0
 62
     3
100
AcDbBlockBegin
  2
*D154
 70
     1
 10
0.0
 20
0.0
 30
0.0
  3
*D154
  1

  0
LINE
  5
88A1
330
889F
100
AcDbEntity
  8
标注
 62
     3
370
     9
100
AcDbLine
 10
6903.261951368847
 20
-8295.403452381732
 30
0.0
 11
6892.020981800469
 21
-8295.403452381732
 31
0.0
  0
LINE
  5
88A2
330
889F
100
AcDbEntity
  8
标注
 62
     3
370
     9
100
AcDbLine
 10
6903.213740807898
 20
-8303.592412381734
 30
0.0
 11
6892.020981800469
 21
-8303.592412381734
 31
0.0
  0
LINE
  5
88A3
330
889F
100
AcDbEntity
  8
标注
 62
     3
370
     9
100
AcDbLine
 10
6885.02098180047
 20
-8279.403452381732
 30
0.0
 11
6885.02098180047
 21
-8263.403452381732
 31
0.0
  0
LINE
  5
88A4
330
889F
100
AcDbEntity
  8
标注
 62
     3
370
     9
100
AcDbLine
 10
6885.02098180047
 20
-8319.592412381734
 30
0.0
 11
6885.02098180047
 21
-8335.592412381734
 31
0.0
  0
LINE
  5
88A5
330
889F
100
AcDbEntity
  8
标注
 62
     3
370
     9
100
AcDbLine
 10
6885.02098180047
 20
-8295.403452381732
 30
0.0
 11
6885.02098180047
 21
-8303.592412381734
 31
0.0
  0
SOLID
  5
88A6
330
889F
100
AcDbEntity
  8
标注
 62
     3
100
AcDbTrace
 10
6882.354315133802
 20
-8279.403452381732
 30
0.0
 11
6887.687648467137
 21
-8279.403452381732
 31
0.0
 12
6885.02098180047
 22
-8295.403452381732
 32
0.0
 13
6885.02098180047
 23
-8295.403452381732
 33
0.0
  0
SOLID
  5
88A7
330
889F
100
AcDbEntity
  8
标注
 62
     3
100
AcDbTrace
 10
6882.354315133802
 20
-8319.592412381734
 30
0.0
 11
6887.687648467137
 21
-8319.592412381734
 31
0.0
 12
6885.02098180047
 22
-8303.592412381734
 32
0.0
 13
6885.02098180047
 23
-8303.592412381734
 33
0.0
  0
MTEXT
  5
88A8
330
889F
100
AcDbEntity
  8
标注
 62
     3
100
AcDbMText
 10
6885.02098180047
 20
-8357.542664724919
 30
0.0
 40
20.0
 41
0.0
 71
     5
 72
     1
  1
\A1;8,2
 11
0.0000000000000001
 21
1.0
 31
0.0
 73
     1
 44
1.0
1001
ACAD
1000
MTEXTBEGIN
1070
    73
1070
     1
1070
    44
1040
1.0
1070
    74
1070
     0
1000
MTEXTEND
  0
POINT
  5
88A9
330
889F
100
AcDbEntity
  8
DEFPOINTS
 62
     0
100
AcDbPoint
 10
6883.261951368847
 20
-8295.403452381732
 30
0.0
  0
POINT
  5
88AA
330
889F
100
AcDbEntity
  8
DEFPOINTS
 62
     0
100
AcDbPoint
 10
6883.213740807898
 20
-8303.592412381734
 30
0.0
  0
POINT
  5
88AB
330
889F
100
AcDbEntity
  8
DEFPOINTS
 62
     0
100
AcDbPoint
 10
6885.02098180047
 20
-8303.592412381734
 30
0.0
  0
ENDBLK
  5
88AC
330
889F
100
AcDbEntity
  8
0
 62
     3
100
AcDbBlockEnd
  0
BLOCK
  5
88AE
330
88AD
100
AcDbEntity
  8
0
 62
     3
100
AcDbBlockBegin
  2
*D155
 70
     1
 10
0.0
 20
0.0
 30
0.0
  3
*D155
  1

  0
LINE
  5
88AF
330
88AD
100
AcDbEntity
  8
标注
  6
Continuous
 62
     3
370
     9
100
AcDbLine
 10
6904.564882968267
 20
-8313.256716095201
 30
0.0
 11
6895.997111375274
 21
-8313.256716095201
 31
0.0
  0
LINE
  5
88B0
330
88AD
100
AcDbEntity
  8
标注
  6
Continuous
 62
     3
370
     9
100
AcDbLine
 10
6904.564882968267
 20
-8329.840862415839
 30
0.0
 11
6895.997111375274
 21
-8329.840862415839
 31
0.0
  0
LINE
  5
88B1
330
88AD
100
AcDbEntity
  8
标注
  6
Continuous
 62
     3
370
     9
100
AcDbLine
 10
6888.997111375275
 20
-8297.256716095203
 30
0.0
 11
6888.997111375275
 21
-8281.256716095203
 31
0.0
  0
LINE
  5
88B2
330
88AD
100
AcDbEntity
  8
标注
  6
Continuous
 62
     3
370
     9
100
AcDbLine
 10
6888.997111375275
 20
-8345.840862415839
 30
0.0
 11
6888.997111375275
 21
-8361.840862415839
 31
0.0
  0
LINE
  5
88B3
330
88AD
100
AcDbEntity
  8
标注
  6
Continuous
 62
     3
370
     9
100
AcDbLine
 10
6888.997111375275
 20
-8313.256716095201
 30
0.0
 11
6888.997111375275
 21
-8329.840862415839
 31
0.0
  0
SOLID
  5
88B4
330
88AD
100
AcDbEntity
  8
标注
  6
Continuous
 62
     3
100
AcDbTrace
 10
6886.330444708608
 20
-8297.256716095203
 30
0.0
 11
6891.663778041942
 21
-8297.256716095203
 31
0.0
 12
6888.997111375275
 22
-8313.256716095201
 32
0.0
 13
6888.997111375275
 23
-8313.256716095201
 33
0.0
  0
SOLID
  5
88B5
330
88AD
100
AcDbEntity
  8
标注
  6
Continuous
 62
     3
100
AcDbTrace
 10
6886.330444708608
 20
-8345.840862415839
 30
0.0
 11
6891.663778041942
 21
-8345.840862415839
 31
0.0
 12
6888.997111375275
 22
-8329.840862415839
 32
0.0
 13
6888.997111375275
 23
-8329.840862415839
 33
0.0
  0
MTEXT
  5
88B6
330
88AD
100
AcDbEntity
  8
标注
  6
Continuous
 62
     3
370
    25
100
AcDbMText
 10
6888.997111375275
 20
-8390.380876835447
 30
0.0
 40
20.0
 41
0.0
 71
     5
 72
     1
  1
\A1;16,6
 11
0.0000000000000001
 21
1.0
 31
0.0
 73
     1
 44
1.0
1001
ACAD
1000
MTEXTBEGIN
1070
    73
1070
     1
1070
    44
1040
1.0
1070
    74
1070
     0
1000
MTEXTEND
  0
POINT
  5
88B7
330
88AD
100
AcDbEntity
  8
DEFPOINTS
  6
Continuous
 62
     0
100
AcDbPoint
 10
6884.564882968267
 20
-8313.256716095201
 30
0.0
  0
POINT
  5
88B8
330
88AD
100
AcDbEntity
  8
DEFPOINTS
  6
Continuous
 62
     0
100
AcDbPoint
 10
6884.564882968267
 20
-8329.840862415839
 30
0.0
  0
POINT
  5
88B9
330
88AD
100
AcDbEntity
  8
DEFPOINTS
  6
Continuous
 62
     0
100
AcDbPoint
 10
6888.997111375275
 20
-8329.840862415839
 30
0.0
  0
ENDBLK
  5
88BA
330
88AD
100
AcDbEntity
  8
0
 62
     3
100
AcDbBlockEnd
  0
BLOCK
  5
88BC
330
88BB
100
AcDbEntity
  8
0
 62
     3
100
AcDbBlockBegin
  2
*D156
 70
     1
 10
0.0
 20
0.0
 30
0.0
  3
*D156
  1

  0
LINE
  5
88BD
330
88BB
100
AcDbEntity
  8
标注
  6
Continuous
 62
     3
370
     9
100
AcDbLine
 10
6852.98076664763
 20
-8349.840862415838
 30
0.0
 11
6852.98076664763
 21
-8341.042066355475
 31
0.0
  0
LINE
  5
88BE
330
88BB
100
AcDbEntity
  8
标注
  6
Continuous
 62
     3
370
     9
100
AcDbLine
 10
6884.564882968267
 20
-8349.840862415836
 30
0.0
 11
6884.564882968267
 21
-8341.042066355475
 31
0.0
  0
LINE
  5
88BF
330
88BB
100
AcDbEntity
  8
标注
  6
Continuous
 62
     3
370
     9
100
AcDbLine
 10
6836.980766647631
 20
-8334.042066355474
 30
0.0
 11
6820.980766647629
 21
-8334.042066355474
 31
0.0
  0
LINE
  5
88C0
330
88BB
100
AcDbEntity
  8
标注
  6
Continuous
 62
     3
370
     9
100
AcDbLine
 10
6900.564882968267
 20
-8334.042066355474
 30
0.0
 11
6916.564882968266
 21
-8334.042066355474
 31
0.0
  0
LINE
  5
88C1
330
88BB
100
AcDbEntity
  8
标注
  6
Continuous
 62
     3
370
     9
100
AcDbLine
 10
6852.98076664763
 20
-8334.042066355474
 30
0.0
 11
6884.564882968267
 21
-8334.042066355474
 31
0.0
  0
SOLID
  5
88C2
330
88BB
100
AcDbEntity
  8
标注
  6
Continuous
 62
     3
100
AcDbTrace
 10
6836.980766647631
 20
-8331.375399688807
 30
0.0
 11
6836.980766647631
 21
-8336.70873302214
 31
0.0
 12
6852.98076664763
 22
-8334.042066355474
 32
0.0
 13
6852.98076664763
 23
-8334.042066355474
 33
0.0
  0
SOLID
  5
88C3
330
88BB
100
AcDbEntity
  8
标注
  6
Continuous
 62
     3
100
AcDbTrace
 10
6900.564882968267
 20
-8331.375399688807
 30
0.0
 11
6900.564882968267
 21
-8336.70873302214
 31
0.0
 12
6884.564882968267
 22
-8334.042066355474
 32
0.0
 13
6884.564882968267
 23
-8334.042066355474
 33
0.0
  0
MTEXT
  5
88C4
330
88BB
100
AcDbEntity
  8
标注
  6
Continuous
 62
     3
370
    25
100
AcDbMText
 10
6946.236836825512
 20
-8334.042066355474
 30
0.0
 40
20.0
 41
0.0
 71
     5
 72
     1
  1
\A1;31,6
 73
     1
 44
1.0
1001
ACAD
1000
MTEXTBEGIN
1070
    73
1070
     1
1070
    44
1040
1.0
1070
    74
1070
     0
1000
MTEXTEND
  0
POINT
  5
88C5
330
88BB
100
AcDbEntity
  8
DEFPOINTS
  6
Continuous
 62
     0
100
AcDbPoint
 10
6852.98076664763
 20
-8329.840862415839
 30
0.0
  0
POINT
  5
88C6
330
88BB
100
AcDbEntity
  8
DEFPOINTS
  6
Continuous
 62
     0
100
AcDbPoint
 10
6884.564882968267
 20
-8329.840862415837
 30
0.0
  0
POINT
  5
88C7
330
88BB
100
AcDbEntity
  8
DEFPOINTS
  6
Continuous
 62
     0
100
AcDbPoint
 10
6884.564882968267
 20
-8334.042066355474
 30
0.0
  0
ENDBLK
  5
88C8
330
88BB
100
AcDbEntity
  8
0
 62
     3
100
AcDbBlockEnd
  0
BLOCK
  5
88CA
330
88C9
100
AcDbEntity
  8
0
 62
     3
100
AcDbBlockBegin
  2
*D157
 70
     1
 10
0.0
 20
0.0
 30
0.0
  3
*D157
  1

  0
LINE
  5
88CB
330
88C9
100
AcDbEntity
  8
标注
  6
ByBlock
 62
     3
370
     9
100
AcDbLine
 10
6852.23740137732
 20
-8380.291689383579
 30
0.0
 11
6852.23740137732
 21
-8369.906606186708
 31
0.0
  0
LINE
  5
88CC
330
88C9
100
AcDbEntity
  8
标注
  6
ByBlock
 62
     3
370
     9
100
AcDbLine
 10
6883.812141377319
 20
-8380.291689383579
 30
0.0
 11
6883.812141377319
 21
-8369.906606186708
 31
0.0
  0
LINE
  5
88CD
330
88C9
100
AcDbEntity
  8
标注
  6
ByBlock
 62
     3
370
     9
100
AcDbLine
 10
6836.237401377319
 20
-8362.906606186708
 30
0.0
 11
6820.237401377319
 21
-8362.906606186708
 31
0.0
  0
LINE
  5
88CE
330
88C9
100
AcDbEntity
  8
标注
  6
ByBlock
 62
     3
370
     9
100
AcDbLine
 10
6899.812141377321
 20
-8362.906606186708
 30
0.0
 11
6915.81214137732
 21
-8362.906606186708
 31
0.0
  0
LINE
  5
88CF
330
88C9
100
AcDbEntity
  8
标注
  6
ByBlock
 62
     3
370
     9
100
AcDbLine
 10
6852.23740137732
 20
-8362.906606186708
 30
0.0
 11
6883.812141377319
 21
-8362.906606186708
 31
0.0
  0
SOLID
  5
88D0
330
88C9
100
AcDbEntity
  8
标注
 62
     3
100
AcDbTrace
 10
6836.237401377319
 20
-8360.23993952004
 30
0.0
 11
6836.237401377319
 21
-8365.573272853373
 31
0.0
 12
6852.23740137732
 22
-8362.906606186708
 32
0.0
 13
6852.23740137732
 23
-8362.906606186708
 33
0.0
  0
SOLID
  5
88D1
330
88C9
100
AcDbEntity
  8
标注
 62
     3
100
AcDbTrace
 10
6899.812141377321
 20
-8360.23993952004
 30
0.0
 11
6899.812141377321
 21
-8365.573272853373
 31
0.0
 12
6883.812141377319
 22
-8362.906606186708
 32
0.0
 13
6883.812141377319
 23
-8362.906606186708
 33
0.0
  0
MTEXT
  5
88D2
330
88C9
100
AcDbEntity
  8
标注
 62
     3
100
AcDbMText
 10
6945.484095234566
 20
-8362.906606186708
 30
0.0
 40
20.0
 41
0.0
 71
     5
 72
     1
  1
\A1;31,6
 73
     1
 44
1.0
1001
ACAD
1000
MTEXTBEGIN
1070
    73
1070
     1
1070
    44
1040
1.0
1070
    74
1070
     0
1000
MTEXTEND
  0
POINT
  5
88D3
330
88C9
100
AcDbEntity
  8
DEFPOINTS
 62
     0
100
AcDbPoint
 10
6852.23740137732
 20
-8360.291689383579
 30
0.0
  0
POINT
  5
88D4
330
88C9
100
AcDbEntity
  8
DEFPOINTS
 62
     0
100
AcDbPoint
 10
6883.812141377319
 20
-8360.291689383579
 30
0.0
  0
POINT
  5
88D5
330
88C9
100
AcDbEntity
  8
DEFPOINTS
 62
     0
100
AcDbPoint
 10
6883.812141377319
 20
-8362.906606186708
 30
0.0
  0
ENDBLK
  5
88D6
330
88C9
100
AcDbEntity
  8
0
 62
     3
100
AcDbBlockEnd
  0
BLOCK
  5
88D8
330
88D7
100
AcDbEntity
  8
0
 62
     3
100
AcDbBlockBegin
  2
*D158
 70
     1
 10
0.0
 20
0.0
 30
0.0
  3
*D158
  1

  0
LINE
  5
88D9
330
88D7
100
AcDbEntity
  8
标注
  6
ByBlock
 62
     3
370
     9
100
AcDbLine
 10
6903.812141377319
 20
-8360.291689383579
 30
0.0
 11
6893.030938502528
 21
-8360.291689383579
 31
0.0
  0
LINE
  5
88DA
330
88D7
100
AcDbEntity
  8
标注
  6
ByBlock
 62
     3
370
     9
100
AcDbLine
 10
6903.812141377319
 20
-8343.716919383579
 30
0.0
 11
6893.030938502528
 21
-8343.716919383579
 31
0.0
  0
LINE
  5
88DB
330
88D7
100
AcDbEntity
  8
标注
  6
ByBlock
 62
     3
370
     9
100
AcDbLine
 10
6886.030938502528
 20
-8376.291689383579
 30
0.0
 11
6886.030938502528
 21
-8392.291689383579
 31
0.0
  0
LINE
  5
88DC
330
88D7
100
AcDbEntity
  8
标注
  6
ByBlock
 62
     3
370
     9
100
AcDbLine
 10
6886.030938502528
 20
-8327.716919383581
 30
0.0
 11
6886.030938502528
 21
-8311.716919383581
 31
0.0
  0
LINE
  5
88DD
330
88D7
100
AcDbEntity
  8
标注
  6
ByBlock
 62
     3
370
     9
100
AcDbLine
 10
6886.030938502528
 20
-8360.291689383579
 30
0.0
 11
6886.030938502528
 21
-8343.716919383579
 31
0.0
  0
SOLID
  5
88DE
330
88D7
100
AcDbEntity
  8
标注
 62
     3
100
AcDbTrace
 10
6883.36427183586
 20
-8376.291689383579
 30
0.0
 11
6888.697605169195
 21
-8376.291689383579
 31
0.0
 12
6886.030938502528
 22
-8360.291689383579
 32
0.0
 13
6886.030938502528
 23
-8360.291689383579
 33
0.0
  0
SOLID
  5
88DF
330
88D7
100
AcDbEntity
  8
标注
 62
     3
100
AcDbTrace
 10
6883.36427183586
 20
-8327.716919383581
 30
0.0
 11
6888.697605169195
 21
-8327.716919383581
 31
0.0
 12
6886.030938502528
 22
-8343.716919383579
 32
0.0
 13
6886.030938502528
 23
-8343.716919383579
 33
0.0
  0
MTEXT
  5
88E0
330
88D7
100
AcDbEntity
  8
标注
 62
     3
100
AcDbMText
 10
6886.030938502528
 20
-8283.176904963967
 30
0.0
 40
20.0
 41
0.0
 71
     5
 72
     1
  1
\A1;16,6
 11
0.0000000000000001
 21
1.0
 31
0.0
 73
     1
 44
1.0
1001
ACAD
1000
MTEXTBEGIN
1070
    73
1070
     1
1070
    44
1040
1.0
1070
    74
1070
     0
1000
MTEXTEND
  0
POINT
  5
88E1
330
88D7
100
AcDbEntity
  8
DEFPOINTS
 62
     0
100
AcDbPoint
 10
6883.812141377319
 20
-8360.291689383579
 30
0.0
  0
POINT
  5
88E2
330
88D7
100
AcDbEntity
  8
DEFPOINTS
 62
     0
100
AcDbPoint
 10
6883.812141377319
 20
-8343.716919383579
 30
0.0
  0
POINT
  5
88E3
330
88D7
100
AcDbEntity
  8
DEFPOINTS
 62
     0
100
AcDbPoint
 10
6886.030938502528
 20
-8343.716919383579
 30
0.0
  0
ENDBLK
  5
88E4
330
88D7
100
AcDbEntity
  8
0
 62
     3
100
AcDbBlockEnd
  0
BLOCK
  5
88E6
330
88E5
100
AcDbEntity
  8
0
 62
     3
100
AcDbBlockBegin
  2
*D159
 70
     1
 10
0.0
 20
0.0
 30
0.0
  3
*D159
  1

  0
LINE
  5
88E7
330
88E5
100
AcDbEntity
  8
标注
 62
     3
370
     9
100
AcDbLine
 10
6852.272857807898
 20
-8350.548771255569
 30
0.0
 11
6852.272857807898
 21
-8342.758217821055
 31
0.0
  0
LINE
  5
88E8
330
88E5
100
AcDbEntity
  8
标注
 62
     3
370
     9
100
AcDbLine
 10
6885.272791807898
 20
-8350.548771255569
 30
0.0
 11
6885.272791807898
 21
-8342.758217821055
 31
0.0
  0
LINE
  5
88E9
330
88E5
100
AcDbEntity
  8
标注
 62
     3
370
     9
100
AcDbLine
 10
6836.272857807898
 20
-8335.758217821055
 30
0.0
 11
6820.272857807899
 21
-8335.758217821055
 31
0.0
  0
LINE
  5
88EA
330
88E5
100
AcDbEntity
  8
标注
 62
     3
370
     9
100
AcDbLine
 10
6901.272791807897
 20
-8335.758217821055
 30
0.0
 11
6917.272791807898
 21
-8335.758217821055
 31
0.0
  0
LINE
  5
88EB
330
88E5
100
AcDbEntity
  8
标注
 62
     3
370
     9
100
AcDbLine
 10
6852.272857807898
 20
-8335.758217821055
 30
0.0
 11
6885.272791807898
 21
-8335.758217821055
 31
0.0
  0
SOLID
  5
88EC
330
88E5
100
AcDbEntity
  8
标注
 62
     3
100
AcDbTrace
 10
6836.272857807898
 20
-8333.091551154387
 30
0.0
 11
6836.272857807898
 21
-8338.42488448772
 31
0.0
 12
6852.272857807898
 22
-8335.758217821055
 32
0.0
 13
6852.272857807898
 23
-8335.758217821055
 33
0.0
  0
SOLID
  5
88ED
330
88E5
100
AcDbEntity
  8
标注
 62
     3
100
AcDbTrace
 10
6901.272791807897
 20
-8333.091551154387
 30
0.0
 11
6901.272791807897
 21
-8338.42488448772
 31
0.0
 12
6885.272791807898
 22
-8335.758217821055
 32
0.0
 13
6885.272791807898
 23
-8335.758217821055
 33
0.0
  0
MTEXT
  5
88EE
330
88E5
100
AcDbEntity
  8
标注
 62
     3
100
AcDbMText
 10
6868.772824807898
 20
-8335.758217821055
 30
0.0
 40
20.0
 41
0.0
 71
     5
 72
     1
  1
\A1;{\fTimes New Roman|b1|i0|c238|p18;33}
 73
     1
 44
1.0
1001
ACAD
1000
MTEXTBEGIN
1070
    73
1070
     1
1070
    44
1040
1.0
1070
    74
1070
     0
1000
MTEXTEND
  0
POINT
  5
88EF
330
88E5
100
AcDbEntity
  8
DEFPOINTS
 62
     0
100
AcDbPoint
 10
6852.272857807898
 20
-8330.548771255569
 30
0.0
  0
POINT
  5
88F0
330
88E5
100
AcDbEntity
  8
DEFPOINTS
 62
     0
100
AcDbPoint
 10
6885.272791807898
 20
-8330.548771255569
 30
0.0
  0
POINT
  5
88F1
330
88E5
100
AcDbEntity
  8
DEFPOINTS
 62
     0
100
AcDbPoint
 10
6885.272791807898
 20
-8335.758217821055
 30
0.0
  0
ENDBLK
  5
88F2
330
88E5
100
AcDbEntity
  8
0
 62
     3
100
AcDbBlockEnd
  0
BLOCK
  5
88F4
330
88F3
100
AcDbEntity
  8
0
 62
     3
100
AcDbBlockBegin
  2
*D160
 70
     1
 10
0.0
 20
0.0
 30
0.0
  3
*D160
  1

  0
LINE
  5
88F5
330
88F3
100
AcDbEntity
  8
标注
 62
     3
370
     9
100
AcDbLine
 10
6905.272791807899
 20
-8330.548771255569
 30
0.0
 11
6897.874904631241
 21
-8330.548771255569
 31
0.0
  0
LINE
  5
88F6
330
88F3
100
AcDbEntity
  8
标注
 62
     3
370
     9
100
AcDbLine
 10
6905.272791807899
 20
-8312.54880725557
 30
0.0
 11
6897.874904631241
 21
-8312.54880725557
 31
0.0
  0
LINE
  5
88F7
330
88F3
100
AcDbEntity
  8
标注
 62
     3
370
     9
100
AcDbLine
 10
6890.874904631242
 20
-8346.548771255569
 30
0.0
 11
6890.874904631242
 21
-8362.548771255569
 31
0.0
  0
LINE
  5
88F8
330
88F3
100
AcDbEntity
  8
标注
 62
     3
370
     9
100
AcDbLine
 10
6890.874904631242
 20
-8296.548807255568
 30
0.0
 11
6890.874904631242
 21
-8280.548807255568
 31
0.0
  0
LINE
  5
88F9
330
88F3
100
AcDbEntity
  8
标注
 62
     3
370
     9
100
AcDbLine
 10
6890.874904631242
 20
-8330.548771255569
 30
0.0
 11
6890.874904631242
 21
-8312.54880725557
 31
0.0
  0
SOLID
  5
88FA
330
88F3
100
AcDbEntity
  8
标注
 62
     3
100
AcDbTrace
 10
6888.208237964575
 20
-8346.548771255569
 30
0.0
 11
6893.541571297908
 21
-8346.548771255569
 31
0.0
 12
6890.874904631242
 22
-8330.548771255569
 32
0.0
 13
6890.874904631242
 23
-8330.548771255569
 33
0.0
  0
SOLID
  5
88FB
330
88F3
100
AcDbEntity
  8
标注
 62
     3
100
AcDbTrace
 10
6888.208237964575
 20
-8296.548807255568
 30
0.0
 11
6893.541571297908
 21
-8296.548807255568
 31
0.0
 12
6890.874904631242
 22
-8312.54880725557
 32
0.0
 13
6890.874904631242
 23
-8312.54880725557
 33
0.0
  0
MTEXT
  5
88FC
330
88F3
100
AcDbEntity
  8
标注
 62
     3
100
AcDbMText
 10
6890.874904631242
 20
-8321.548789255569
 30
0.0
 40
20.0
 41
0.0
 71
     5
 72
     1
  1
\A1;{\fTimes New Roman|b1|i0|c238|p18;18}
 11
0.0000000000000001
 21
1.0
 31
0.0
 73
     1
 44
1.0
1001
ACAD
1000
MTEXTBEGIN
1070
    73
1070
     1
1070
    44
1040
1.0
1070
    74
1070
     0
1000
MTEXTEND
  0
POINT
  5
88FD
330
88F3
100
AcDbEntity
  8
DEFPOINTS
 62
     0
100
AcDbPoint
 10
6885.272791807898
 20
-8330.548771255569
 30
0.0
  0
POINT
  5
88FE
330
88F3
100
AcDbEntity
  8
DEFPOINTS
 62
     0
100
AcDbPoint
 10
6885.272791807898
 20
-8312.54880725557
 30
0.0
  0
POINT
  5
88FF
330
88F3
100
AcDbEntity
  8
DEFPOINTS
 62
     0
100
AcDbPoint
 10
6890.874904631242
 20
-8312.54880725557
 30
0.0
  0
ENDBLK
  5
8900
330
88F3
100
AcDbEntity
  8
0
 62
     3
100
AcDbBlockEnd
  0
BLOCK
  5
8902
330
8901
100
AcDbEntity
  8
0
 62
     3
100
AcDbBlockBegin
  2
*D161
 70
     1
 10
0.0
 20
0.0
 30
0.0
  3
*D161
  1

  0
LINE
  5
8903
330
8901
100
AcDbEntity
  8
标注
  6
Continuous
 62
     3
370
     9
100
AcDbLine
 10
6854.292853767899
 20
-8347.759148334191
 30
0.0
 11
6854.292853767899
 21
-8339.434629230195
 31
0.0
  0
LINE
  5
8904
330
8901
100
AcDbEntity
  8
标注
  6
Continuous
 62
     3
370
     9
100
AcDbLine
 10
6883.252795847899
 20
-8347.759148334191
 30
0.0
 11
6883.252795847899
 21
-8339.434629230195
 31
0.0
  0
LINE
  5
8905
330
8901
100
AcDbEntity
  8
标注
  6
Continuous
 62
     3
370
     9
100
AcDbLine
 10
6838.292853767898
 20
-8332.434629230194
 30
0.0
 11
6822.292853767898
 21
-8332.434629230194
 31
0.0
  0
LINE
  5
8906
330
8901
100
AcDbEntity
  8
标注
  6
Continuous
 62
     3
370
     9
100
AcDbLine
 10
6899.252795847899
 20
-8332.434629230194
 30
0.0
 11
6915.252795847898
 21
-8332.434629230194
 31
0.0
  0
LINE
  5
8907
330
8901
100
AcDbEntity
  8
标注
  6
Continuous
 62
     3
370
     9
100
AcDbLine
 10
6854.292853767899
 20
-8332.434629230194
 30
0.0
 11
6883.252795847899
 21
-8332.434629230194
 31
0.0
  0
SOLID
  5
8908
330
8901
100
AcDbEntity
  8
标注
  6
Continuous
 62
     3
100
AcDbTrace
 10
6838.292853767898
 20
-8329.767962563527
 30
0.0
 11
6838.292853767898
 21
-8335.10129589686
 31
0.0
 12
6854.292853767899
 22
-8332.434629230194
 32
0.0
 13
6854.292853767899
 23
-8332.434629230194
 33
0.0
  0
SOLID
  5
8909
330
8901
100
AcDbEntity
  8
标注
  6
Continuous
 62
     3
100
AcDbTrace
 10
6899.252795847899
 20
-8329.767962563527
 30
0.0
 11
6899.252795847899
 21
-8335.10129589686
 31
0.0
 12
6883.252795847899
 22
-8332.434629230194
 32
0.0
 13
6883.252795847899
 23
-8332.434629230194
 33
0.0
  0
MTEXT
  5
890A
330
8901
100
AcDbEntity
  8
标注
  6
Continuous
 62
     3
370
    25
100
AcDbMText
 10
6934.06678287025
 20
-8332.434629230194
 30
0.0
 40
20.0
 41
0.0
 71
     5
 72
     1
  1
\A1;29
 73
     1
 44
1.0
1001
ACAD
1000
MTEXTBEGIN
1070
    73
1070
     1
1070
    44
1040
1.0
1070
    74
1070
     0
1000
MTEXTEND
  0
POINT
  5
890B
330
8901
100
AcDbEntity
  8
DEFPOINTS
  6
Continuous
 62
     0
100
AcDbPoint
 10
6854.292853767899
 20
-8327.759148334191
 30
0.0
  0
POINT
  5
890C
330
8901
100
AcDbEntity
  8
DEFPOINTS
  6
Continuous
 62
     0
100
AcDbPoint
 10
6883.252795847899
 20
-8327.759148334191
 30
0.0
  0
POINT
  5
890D
330
8901
100
AcDbEntity
  8
DEFPOINTS
  6
Continuous
 62
     0
100
AcDbPoint
 10
6883.252795847899
 20
-8332.434629230194
 30
0.0
  0
ENDBLK
  5
890E
330
8901
100
AcDbEntity
  8
0
 62
     3
100
AcDbBlockEnd
  0
BLOCK
  5
8910
330
890F
100
AcDbEntity
  8
0
 62
     3
100
AcDbBlockBegin
  2
*D162
 70
     1
 10
0.0
 20
0.0
 30
0.0
  3
*D162
  1

  0
LINE
  5
8911
330
890F
100
AcDbEntity
  8
标注
 62
     3
370
     9
100
AcDbLine
 10
6902.357320645804
 20
-8328.52877529557
 30
0.0
 11
6893.910653422306
 21
-8328.52877529557
 31
0.0
  0
LINE
  5
8912
330
890F
100
AcDbEntity
  8
标注
 62
     3
370
     9
100
AcDbLine
 10
6902.357320645804
 20
-8314.56880321557
 30
0.0
 11
6893.910653422306
 21
-8314.56880321557
 31
0.0
  0
LINE
  5
8913
330
890F
100
AcDbEntity
  8
标注
 62
     3
370
     9
100
AcDbLine
 10
6886.910653422306
 20
-8344.52877529557
 30
0.0
 11
6886.910653422306
 21
-8360.52877529557
 31
0.0
  0
LINE
  5
8914
330
890F
100
AcDbEntity
  8
标注
 62
     3
370
     9
100
AcDbLine
 10
6886.910653422306
 20
-8298.568803215571
 30
0.0
 11
6886.910653422306
 21
-8282.568803215571
 31
0.0
  0
LINE
  5
8915
330
890F
100
AcDbEntity
  8
标注
 62
     3
370
     9
100
AcDbLine
 10
6886.910653422306
 20
-8328.52877529557
 30
0.0
 11
6886.910653422306
 21
-8314.56880321557
 31
0.0
  0
SOLID
  5
8916
330
890F
100
AcDbEntity
  8
标注
 62
     3
100
AcDbTrace
 10
6884.243986755639
 20
-8344.52877529557
 30
0.0
 11
6889.577320088972
 21
-8344.52877529557
 31
0.0
 12
6886.910653422306
 22
-8328.52877529557
 32
0.0
 13
6886.910653422306
 23
-8328.52877529557
 33
0.0
  0
SOLID
  5
8917
330
890F
100
AcDbEntity
  8
标注
 62
     3
100
AcDbTrace
 10
6884.243986755639
 20
-8298.568803215571
 30
0.0
 11
6889.577320088972
 21
-8298.568803215571
 31
0.0
 12
6886.910653422306
 22
-8314.56880321557
 32
0.0
 13
6886.910653422306
 23
-8314.56880321557
 33
0.0
  0
MTEXT
  5
8918
330
890F
100
AcDbEntity
  8
标注
 62
     3
100
AcDbMText
 10
6886.910653422306
 20
-8265.045371348229
 30
0.0
 40
20.0
 41
0.0
 71
     5
 72
     1
  1
\A1;14
 11
0.0000000000000001
 21
1.0
 31
0.0
 73
     1
 44
1.0
1001
ACAD
1000
MTEXTBEGIN
1070
    73
1070
     1
1070
    44
1040
1.0
1070
    74
1070
     0
1000
MTEXTEND
  0
POINT
  5
8919
330
890F
100
AcDbEntity
  8
DEFPOINTS
 62
     0
100
AcDbPoint
 10
6882.357320645803
 20
-8328.52877529557
 30
0.0
  0
POINT
  5
891A
330
890F
100
AcDbEntity
  8
DEFPOINTS
 62
     0
100
AcDbPoint
 10
6882.357320645803
 20
-8314.56880321557
 30
0.0
  0
POINT
  5
891B
330
890F
100
AcDbEntity
  8
DEFPOINTS
 62
     0
100
AcDbPoint
 10
6886.910653422306
 20
-8314.56880321557
 30
0.0
  0
ENDBLK
  5
891C
330
890F
100
AcDbEntity
  8
0
 62
     3
100
AcDbBlockEnd
  0
BLOCK
  5
8A11
330
8A10
100
AcDbEntity
  8
0
100
AcDbBlockBegin
  2
*D164
 70
     1
 10
0.0
 20
0.0
 30
0.0
  3
*D164
  1

  0
LINE
  5
8B9C
330
8A10
100
AcDbEntity
  8
标注
370
    -2
100
AcDbLine
 10
1421.066407716027
 20
154.7209557767699
 30
0.0
 11
1424.768221629789
 21
154.7209557767699
 31
0.0
  0
LINE
  5
8B9D
330
8A10
100
AcDbEntity
  8
标注
370
    -2
100
AcDbLine
 10
1423.716008716027
 20
164.2209367767707
 30
0.0
 11
1424.768221629789
 21
164.2209367767707
 31
0.0
  0
LINE
  5
8B9E
330
8A10
100
AcDbEntity
  8
标注
370
    -2
100
AcDbLine
 10
1424.448221629789
 20
155.3709557767698
 30
0.0
 11
1424.448221629789
 21
158.0400970271113
 31
0.0
  0
LINE
  5
8B9F
330
8A10
100
AcDbEntity
  8
标注
370
    -2
100
AcDbLine
 10
1424.448221629789
 20
163.5709367767707
 30
0.0
 11
1424.448221629789
 21
160.9017955264292
 31
0.0
  0
SOLID
  5
8BA0
330
8A10
100
AcDbEntity
  8
标注
100
AcDbTrace
 10
1424.339888296455
 20
155.3709557767698
 30
0.0
 11
1424.556554963122
 21
155.3709557767698
 31
0.0
 12
1424.448221629789
 22
154.7209557767699
 32
0.0
 13
1424.448221629789
 23
154.7209557767699
 33
0.0
  0
SOLID
  5
8BA1
330
8A10
100
AcDbEntity
  8
标注
100
AcDbTrace
 10
1424.339888296455
 20
163.5709367767707
 30
0.0
 11
1424.556554963122
 21
163.5709367767707
 31
0.0
 12
1424.448221629789
 22
164.2209367767707
 32
0.0
 13
1424.448221629789
 23
164.2209367767707
 33
0.0
  0
MTEXT
  5
8BA2
330
8A10
100
AcDbEntity
  8
标注
100
AcDbMText
 10
1424.448221629789
 20
159.4709462767705
 30
0.0
 40
0.65
 41
0.0
 71
     5
 72
     1
  1
\A1;9 1/2"
 11
0.0000000000000001
 21
1.0
 31
0.0
 73
     1
 44
1.0
1001
ACAD
1000
MTEXTBEGIN
1070
    73
1070
     1
1070
    44
1040
1.0
1070
    74
1070
     0
1000
MTEXTEND
  0
POINT
  5
8BA3
330
8A10
100
AcDbEntity
  8
DEFPOINTS
 62
     0
100
AcDbPoint
 10
1420.186407716027
 20
154.7209557767699
 30
0.0
  0
POINT
  5
8BA4
330
8A10
100
AcDbEntity
  8
DEFPOINTS
 62
     0
100
AcDbPoint
 10
1422.836008716027
 20
164.2209367767707
 30
0.0
  0
POINT
  5
8BA5
330
8A10
100
AcDbEntity
  8
DEFPOINTS
 62
     0
100
AcDbPoint
 10
1424.448221629789
 20
164.2209367767707
 30
0.0
  0
ENDBLK
  5
8A12
330
8A10
100
AcDbEntity
  8
0
100
AcDbBlockEnd
  0
BLOCK
  5
8A1E
330
8A1D
100
AcDbEntity
  8
0
100
AcDbBlockBegin
  2
*D165
 70
     1
 10
0.0
 20
0.0
 30
0.0
  3
*D165
  1

  0
LINE
  5
8B92
330
8A1D
100
AcDbEntity
  8
标注
370
    -2
100
AcDbLine
 10
1421.114618276976
 20
162.9099157767712
 30
0.0
 11
1422.313648708598
 21
162.9099157767712
 31
0.0
  0
LINE
  5
8B93
330
8A1D
100
AcDbEntity
  8
标注
370
    -2
100
AcDbLine
 10
1421.066407716027
 20
154.7209557767699
 30
0.0
 11
1422.313648708598
 21
154.7209557767699
 31
0.0
  0
LINE
  5
8B94
330
8A1D
100
AcDbEntity
  8
标注
370
    -2
100
AcDbLine
 10
1421.993648708598
 20
162.2599157767712
 30
0.0
 11
1421.993648708598
 21
160.2467284097855
 31
0.0
  0
LINE
  5
8B95
330
8A1D
100
AcDbEntity
  8
标注
370
    -2
100
AcDbLine
 10
1421.993648708598
 20
155.3709557767698
 30
0.0
 11
1421.993648708598
 21
157.3841431437555
 31
0.0
  0
SOLID
  5
8B96
330
8A1D
100
AcDbEntity
  8
标注
100
AcDbTrace
 10
1421.885315375265
 20
162.2599157767712
 30
0.0
 11
1422.101982041932
 21
162.2599157767712
 31
0.0
 12
1421.993648708598
 22
162.9099157767712
 32
0.0
 13
1421.993648708598
 23
162.9099157767712
 33
0.0
  0
SOLID
  5
8B97
330
8A1D
100
AcDbEntity
  8
标注
100
AcDbTrace
 10
1421.885315375265
 20
155.3709557767698
 30
0.0
 11
1422.101982041932
 21
155.3709557767698
 31
0.0
 12
1421.993648708598
 22
154.7209557767699
 32
0.0
 13
1421.993648708598
 23
154.7209557767699
 33
0.0
  0
MTEXT
  5
8B98
330
8A1D
100
AcDbEntity
  8
标注
100
AcDbMText
 10
1421.993648708598
 20
158.8154357767707
 30
0.0
 40
0.65
 41
0.0
 71
     5
 72
     1
  1
\A1;8 1/4"
 11
0.0000000000000001
 21
1.0
 31
0.0
 73
     1
 44
1.0
1001
ACAD
1000
MTEXTBEGIN
1070
    73
1070
     1
1070
    44
1040
1.0
1070
    74
1070
     0
1000
MTEXTEND
  0
POINT
  5
8B99
330
8A1D
100
AcDbEntity
  8
DEFPOINTS
 62
     0
100
AcDbPoint
 10
1420.234618276976
 20
162.9099157767712
 30
0.0
  0
POINT
  5
8B9A
330
8A1D
100
AcDbEntity
  8
DEFPOINTS
 62
     0
100
AcDbPoint
 10
1420.186407716027
 20
154.7209557767699
 30
0.0
  0
POINT
  5
8B9B
330
8A1D
100
AcDbEntity
  8
DEFPOINTS
 62
     0
100
AcDbPoint
 10
1421.993648708598
 20
154.7209557767699
 30
0.0
  0
ENDBLK
  5
8A1F
330
8A1D
100
AcDbEntity
  8
0
100
AcDbBlockEnd
  0
BLOCK
  5
8A35
330
8A34
100
AcDbEntity
  8
0
100
AcDbBlockBegin
  2
*D166
 70
     1
 10
0.0
 20
0.0
 30
0.0
  3
*D166
  1

  0
LINE
  5
8BCE
330
8A34
100
AcDbEntity
  8
标注
  6
Continuous
370
    -2
100
AcDbLine
 10
1422.417549876396
 20
142.5060173976076
 30
0.0
 11
1426.289778283403
 21
142.5060173976076
 31
0.0
  0
LINE
  5
8BCF
330
8A34
100
AcDbEntity
  8
标注
  6
Continuous
370
    -2
100
AcDbLine
 10
1422.417549876397
 20
125.9218710769714
 30
0.0
 11
1426.289778283403
 21
125.9218710769714
 31
0.0
  0
LINE
  5
8BD0
330
8A34
100
AcDbEntity
  8
标注
  6
Continuous
370
    -2
100
AcDbLine
 10
1425.969778283403
 20
141.8560173976076
 30
0.0
 11
1425.969778283403
 21
135.866706856662
 31
0.0
  0
LINE
  5
8BD1
330
8A34
100
AcDbEntity
  8
标注
  6
Continuous
370
    -2
100
AcDbLine
 10
1425.969778283403
 20
126.5718710769714
 30
0.0
 11
1425.969778283403
 21
132.5611816179171
 31
0.0
  0
SOLID
  5
8BD2
330
8A34
100
AcDbEntity
  8
标注
  6
Continuous
100
AcDbTrace
 10
1425.86144495007
 20
141.8560173976076
 30
0.0
 11
1426.078111616737
 21
141.8560173976076
 31
0.0
 12
1425.969778283403
 22
142.5060173976076
 32
0.0
 13
1425.969778283403
 23
142.5060173976076
 33
0.0
  0
SOLID
  5
8BD3
330
8A34
100
AcDbEntity
  8
标注
  6
Continuous
100
AcDbTrace
 10
1425.86144495007
 20
126.5718710769714
 30
0.0
 11
1426.078111616737
 21
126.5718710769714
 31
0.0
 12
1425.969778283403
 22
125.9218710769714
 32
0.0
 13
1425.969778283403
 23
125.9218710769714
 33
0.0
  0
MTEXT
  5
8BD4
330
8A34
100
AcDbEntity
  8
标注
  6
Continuous
370
    25
100
AcDbMText
 10
1425.969778283403
 20
134.2139442372897
 30
0.0
 40
0.65
 41
0.0
 71
     5
 72
     1
  1
\A1;16 5/8"
 11
0.0000000000000001
 21
1.0
 31
0.0
 73
     1
 44
1.0
1001
ACAD
1000
MTEXTBEGIN
1070
    73
1070
     1
1070
    44
1040
1.0
1070
    74
1070
     0
1000
MTEXTEND
  0
POINT
  5
8BD5
330
8A34
100
AcDbEntity
  8
DEFPOINTS
  6
Continuous
 62
     0
100
AcDbPoint
 10
1421.537549876395
 20
142.5060173976076
 30
0.0
  0
POINT
  5
8BD6
330
8A34
100
AcDbEntity
  8
DEFPOINTS
  6
Continuous
 62
     0
100
AcDbPoint
 10
1421.537549876396
 20
125.9218710769714
 30
0.0
  0
POINT
  5
8BD7
330
8A34
100
AcDbEntity
  8
DEFPOINTS
  6
Continuous
 62
     0
100
AcDbPoint
 10
1425.969778283403
 20
125.9218710769714
 30
0.0
  0
ENDBLK
  5
8A36
330
8A34
100
AcDbEntity
  8
0
100
AcDbBlockEnd
  0
BLOCK
  5
8A42
330
8A41
100
AcDbEntity
  8
0
100
AcDbBlockBegin
  2
*D167
 70
     1
 10
0.0
 20
0.0
 30
0.0
  3
*D167
  1

  0
LINE
  5
8BD8
330
8A41
100
AcDbEntity
  8
标注
  6
Continuous
370
    -2
100
AcDbLine
 10
1389.953433555759
 20
125.0418710769714
 30
0.0
 11
1389.953433555759
 21
121.4006671373355
 31
0.0
  0
LINE
  5
8BD9
330
8A41
100
AcDbEntity
  8
标注
  6
Continuous
370
    -2
100
AcDbLine
 10
1421.537549876395
 20
125.0418710769733
 30
0.0
 11
1421.537549876395
 21
121.4006671373355
 31
0.0
  0
LINE
  5
8BDA
330
8A41
100
AcDbEntity
  8
标注
  6
Continuous
370
    -2
100
AcDbLine
 10
1390.603433555759
 20
121.7206671373356
 30
0.0
 11
1404.062357336814
 21
121.7206671373356
 31
0.0
  0
LINE
  5
8BDB
330
8A41
100
AcDbEntity
  8
标注
  6
Continuous
370
    -2
100
AcDbLine
 10
1420.887549876395
 20
121.7206671373356
 30
0.0
 11
1407.428626095341
 21
121.7206671373356
 31
0.0
  0
SOLID
  5
8BDC
330
8A41
100
AcDbEntity
  8
标注
  6
Continuous
100
AcDbTrace
 10
1390.603433555759
 20
121.8290004706689
 30
0.0
 11
1390.603433555759
 21
121.6123338040022
 31
0.0
 12
1389.953433555759
 22
121.7206671373356
 32
0.0
 13
1389.953433555759
 23
121.7206671373356
 33
0.0
  0
SOLID
  5
8BDD
330
8A41
100
AcDbEntity
  8
标注
  6
Continuous
100
AcDbTrace
 10
1420.887549876395
 20
121.8290004706689
 30
0.0
 11
1420.887549876395
 21
121.6123338040022
 31
0.0
 12
1421.537549876395
 22
121.7206671373356
 32
0.0
 13
1421.537549876395
 23
121.7206671373356
 33
0.0
  0
MTEXT
  5
8BDE
330
8A41
100
AcDbEntity
  8
标注
  6
Continuous
370
    25
100
AcDbMText
 10
1405.745491716077
 20
121.7206671373356
 30
0.0
 40
0.65
 41
0.0
 71
     5
 72
     1
  1
\A1;31 5/8"
 73
     1
 44
1.0
1001
ACAD
1000
MTEXTBEGIN
1070
    73
1070
     1
1070
    44
1040
1.0
1070
    74
1070
     0
1000
MTEXTEND
  0
POINT
  5
8BDF
330
8A41
100
AcDbEntity
  8
DEFPOINTS
  6
Continuous
 62
     0
100
AcDbPoint
 10
1389.953433555759
 20
125.9218710769714
 30
0.0
  0
POINT
  5
8BE0
330
8A41
100
AcDbEntity
  8
DEFPOINTS
  6
Continuous
 62
     0
100
AcDbPoint
 10
1421.537549876395
 20
125.9218710769733
 30
0.0
  0
POINT
  5
8BE1
330
8A41
100
AcDbEntity
  8
DEFPOINTS
  6
Continuous
 62
     0
100
AcDbPoint
 10
1421.537549876395
 20
121.7206671373356
 30
0.0
  0
ENDBLK
  5
8A43
330
8A41
100
AcDbEntity
  8
0
100
AcDbBlockEnd
  0
BLOCK
  5
8A4F
330
8A4E
100
AcDbEntity
  8
0
100
AcDbBlockBegin
  2
*D168
 70
     1
 10
0.0
 20
0.0
 30
0.0
  3
*D168
  1

  0
LINE
  5
8B88
330
8A4E
100
AcDbEntity
  8
标注
  6
ByBlock
370
    -2
100
AcDbLine
 10
1389.210068285448
 20
89.70740578183949
 30
0.0
 11
1389.210068285448
 21
87.33248897871158
 31
0.0
  0
LINE
  5
8B89
330
8A4E
100
AcDbEntity
  8
标注
  6
ByBlock
370
    -2
100
AcDbLine
 10
1420.784808285448
 20
89.70740578183949
 30
0.0
 11
1420.784808285448
 21
87.33248897871158
 31
0.0
  0
LINE
  5
8B8A
330
8A4E
100
AcDbEntity
  8
标注
  6
ByBlock
370
    -2
100
AcDbLine
 10
1389.860068285449
 20
87.65248897871158
 30
0.0
 11
1403.314303906185
 21
87.65248897871158
 31
0.0
  0
LINE
  5
8B8B
330
8A4E
100
AcDbEntity
  8
标注
  6
ByBlock
370
    -2
100
AcDbLine
 10
1420.134808285448
 20
87.65248897871158
 30
0.0
 11
1406.680572664712
 21
87.65248897871158
 31
0.0
  0
SOLID
  5
8B8C
330
8A4E
100
AcDbEntity
  8
标注
100
AcDbTrace
 10
1389.860068285449
 20
87.7608223120449
 30
0.0
 11
1389.860068285449
 21
87.54415564537824
 31
0.0
 12
1389.210068285448
 22
87.65248897871158
 32
0.0
 13
1389.210068285448
 23
87.65248897871158
 33
0.0
  0
SOLID
  5
8B8D
330
8A4E
100
AcDbEntity
  8
标注
100
AcDbTrace
 10
1420.134808285448
 20
87.7608223120449
 30
0.0
 11
1420.134808285448
 21
87.54415564537824
 31
0.0
 12
1420.784808285448
 22
87.65248897871158
 32
0.0
 13
1420.784808285448
 23
87.65248897871158
 33
0.0
  0
MTEXT
  5
8B8E
330
8A4E
100
AcDbEntity
  8
标注
100
AcDbMText
 10
1404.997438285448
 20
87.65248897871158
 30
0.0
 40
0.65
 41
0.0
 71
     5
 72
     1
  1
\A1;31 5/8"
 73
     1
 44
1.0
1001
ACAD
1000
MTEXTBEGIN
1070
    73
1070
     1
1070
    44
1040
1.0
1070
    74
1070
     0
1000
MTEXTEND
  0
POINT
  5
8B8F
330
8A4E
100
AcDbEntity
  8
DEFPOINTS
 62
     0
100
AcDbPoint
 10
1389.210068285448
 20
90.58740578183948
 30
0.0
  0
POINT
  5
8B90
330
8A4E
100
AcDbEntity
  8
DEFPOINTS
 62
     0
100
AcDbPoint
 10
1420.784808285448
 20
90.58740578183948
 30
0.0
  0
POINT
  5
8B91
330
8A4E
100
AcDbEntity
  8
DEFPOINTS
 62
     0
100
AcDbPoint
 10
1420.784808285448
 20
87.65248897871158
 30
0.0
  0
ENDBLK
  5
8A50
330
8A4E
100
AcDbEntity
  8
0
100
AcDbBlockEnd
  0
BLOCK
  5
8A5C
330
8A5B
100
AcDbEntity
  8
0
100
AcDbBlockBegin
  2
*D169
 70
     1
 10
0.0
 20
0.0
 30
0.0
  3
*D169
  1

  0
LINE
  5
8B6D
330
8A5B
100
AcDbEntity
  8
标注
  6
ByBlock
370
    -2
100
AcDbLine
 10
1421.664808285449
 20
90.58740578183948
 30
0.0
 11
1423.968208405755
 21
90.58740578183948
 31
0.0
  0
LINE
  5
8B6E
330
8A5B
100
AcDbEntity
  8
标注
  6
ByBlock
370
    -2
100
AcDbLine
 10
1421.664808285449
 20
107.1621757818387
 30
0.0
 11
1423.968208405755
 21
107.1621757818387
 31
0.0
  0
LINE
  5
8B6F
330
8A5B
100
AcDbEntity
  8
标注
  6
ByBlock
370
    -2
100
AcDbLine
 10
1423.648208405755
 20
91.2374057818395
 30
0.0
 11
1423.648208405755
 21
97.22202816246669
 31
0.0
  0
LINE
  5
8B70
330
8A5B
100
AcDbEntity
  8
标注
  6
ByBlock
370
    -2
100
AcDbLine
 10
1423.648208405755
 20
106.5121757818387
 30
0.0
 11
1423.648208405755
 21
100.5275534012115
 31
0.0
  0
SOLID
  5
8B71
330
8A5B
100
AcDbEntity
  8
标注
100
AcDbTrace
 10
1423.539875072422
 20
91.2374057818395
 30
0.0
 11
1423.756541739089
 21
91.2374057818395
 31
0.0
 12
1423.648208405755
 22
90.58740578183948
 32
0.0
 13
1423.648208405755
 23
90.58740578183948
 33
0.0
  0
SOLID
  5
8B72
330
8A5B
100
AcDbEntity
  8
标注
100
AcDbTrace
 10
1423.539875072422
 20
106.5121757818387
 30
0.0
 11
1423.756541739089
 21
106.5121757818387
 31
0.0
 12
1423.648208405755
 22
107.1621757818387
 32
0.0
 13
1423.648208405755
 23
107.1621757818387
 33
0.0
  0
MTEXT
  5
8B73
330
8A5B
100
AcDbEntity
  8
标注
100
AcDbMText
 10
1423.648208405755
 20
98.87479078183936
 30
0.0
 40
0.65
 41
0.0
 71
     5
 72
     1
  1
\A1;16 5/8"
 11
0.0000000000000001
 21
1.0
 31
0.0
 73
     1
 44
1.0
1001
ACAD
1000
MTEXTBEGIN
1070
    73
1070
     1
1070
    44
1040
1.0
1070
    74
1070
     0
1000
MTEXTEND
  0
POINT
  5
8B74
330
8A5B
100
AcDbEntity
  8
DEFPOINTS
 62
     0
100
AcDbPoint
 10
1420.784808285448
 20
90.58740578183948
 30
0.0
  0
POINT
  5
8B75
330
8A5B
100
AcDbEntity
  8
DEFPOINTS
 62
     0
100
AcDbPoint
 10
1420.784808285448
 20
107.1621757818387
 30
0.0
  0
POINT
  5
8B76
330
8A5B
100
AcDbEntity
  8
DEFPOINTS
 62
     0
100
AcDbPoint
 10
1423.648208405755
 20
107.1621757818387
 30
0.0
  0
ENDBLK
  5
8A5D
330
8A5B
100
AcDbEntity
  8
0
100
AcDbBlockEnd
  0
BLOCK
  5
8A69
330
8A68
100
AcDbEntity
  8
0
100
AcDbBlockBegin
  2
*D170
 70
     1
 10
0.0
 20
0.0
 30
0.0
  3
*D170
  1

  0
LINE
  5
8BA6
330
8A68
100
AcDbEntity
  8
标注
370
    -2
100
AcDbLine
 10
1389.245524716028
 20
124.3339622372401
 30
0.0
 11
1389.245524716028
 21
119.6845156717556
 31
0.0
  0
LINE
  5
8BA7
330
8A68
100
AcDbEntity
  8
标注
370
    -2
100
AcDbLine
 10
1422.245458716027
 20
124.3339622372401
 30
0.0
 11
1422.245458716027
 21
119.6845156717556
 31
0.0
  0
LINE
  5
8BA8
330
8A68
100
AcDbEntity
  8
标注
370
    -2
100
AcDbLine
 10
1389.895524716028
 20
120.0045156717556
 30
0.0
 11
1404.748291571518
 21
120.0045156717556
 31
0.0
  0
LINE
  5
8BA9
330
8A68
100
AcDbEntity
  8
标注
370
    -2
100
AcDbLine
 10
1421.595458716027
 20
120.0045156717556
 30
0.0
 11
1406.742691860536
 21
120.0045156717556
 31
0.0
  0
MTEXT
  5
8BAA
330
8A68
100
AcDbEntity
  8
标注
100
AcDbMText
 10
1405.745491716027
 20
120.0045156717556
 30
0.0
 40
0.65
 41
0.0
 71
     5
 72
     1
  1
\A1;{\fTimes New Roman|b1|i0|c238|p18;33"}
 73
     1
 44
1.0
1001
ACAD
1000
MTEXTBEGIN
1070
    73
1070
     1
1070
    44
1040
1.0
1070
    74
1070
     0
1000
MTEXTEND
  0
SOLID
  5
8BAB
330
8A68
100
AcDbEntity
  8
标注
100
AcDbTrace
 10
1389.895524716028
 20
120.1128490050889
 30
0.0
 11
1389.895524716028
 21
119.8961823384222
 31
0.0
 12
1389.245524716028
 22
120.0045156717556
 32
0.0
 13
1389.245524716028
 23
120.0045156717556
 33
0.0
  0
SOLID
  5
8BAC
330
8A68
100
AcDbEntity
  8
标注
100
AcDbTrace
 10
1421.595458716027
 20
120.1128490050889
 30
0.0
 11
1421.595458716027
 21
119.8961823384222
 31
0.0
 12
1422.245458716027
 22
120.0045156717556
 32
0.0
 13
1422.245458716027
 23
120.0045156717556
 33
0.0
  0
POINT
  5
8BAD
330
8A68
100
AcDbEntity
  8
DEFPOINTS
 62
     0
100
AcDbPoint
 10
1389.245524716028
 20
125.2139622372401
 30
0.0
  0
POINT
  5
8BAE
330
8A68
100
AcDbEntity
  8
DEFPOINTS
 62
     0
100
AcDbPoint
 10
1422.245458716027
 20
125.2139622372401
 30
0.0
  0
POINT
  5
8BAF
330
8A68
100
AcDbEntity
  8
DEFPOINTS
 62
     0
100
AcDbPoint
 10
1422.245458716027
 20
120.0045156717556
 30
0.0
  0
ENDBLK
  5
8A6A
330
8A68
100
AcDbEntity
  8
0
100
AcDbBlockEnd
  0
BLOCK
  5
8A76
330
8A75
100
AcDbEntity
  8
0
100
AcDbBlockBegin
  2
*D171
 70
     1
 10
0.0
 20
0.0
 30
0.0
  3
*D171
  1

  0
LINE
  5
8BB0
330
8A75
100
AcDbEntity
  8
标注
370
    -2
100
AcDbLine
 10
1423.125458716027
 20
125.2139622372401
 30
0.0
 11
1428.16757153937
 21
125.2139622372401
 31
0.0
  0
LINE
  5
8BB1
330
8A75
100
AcDbEntity
  8
标注
370
    -2
100
AcDbLine
 10
1423.125458716027
 20
143.2139262372407
 30
0.0
 11
1428.16757153937
 21
143.2139262372407
 31
0.0
  0
LINE
  5
8BB2
330
8A75
100
AcDbEntity
  8
标注
370
    -2
100
AcDbLine
 10
1427.84757153937
 20
125.8639622372401
 30
0.0
 11
1427.84757153937
 21
133.2406964048711
 31
0.0
  0
LINE
  5
8BB3
330
8A75
100
AcDbEntity
  8
标注
370
    -2
100
AcDbLine
 10
1427.84757153937
 20
142.5639262372406
 30
0.0
 11
1427.84757153937
 21
135.187192069611
 31
0.0
  0
MTEXT
  5
8BB4
330
8A75
100
AcDbEntity
  8
标注
100
AcDbMText
 10
1427.847571539371
 20
134.2139442372413
 30
0.0
 40
0.65
 41
0.0
 71
     5
 72
     1
  1
\A1;{\fTimes New Roman|b1|i0|c238|p18;18"}
 11
0.0000000000000001
 21
1.0
 31
0.0
 73
     1
 44
1.0
1001
ACAD
1000
MTEXTBEGIN
1070
    73
1070
     1
1070
    44
1040
1.0
1070
    74
1070
     0
1000
MTEXTEND
  0
SOLID
  5
8BB5
330
8A75
100
AcDbEntity
  8
标注
100
AcDbTrace
 10
1427.739238206037
 20
125.8639622372401
 30
0.0
 11
1427.955904872703
 21
125.8639622372401
 31
0.0
 12
1427.84757153937
 22
125.2139622372401
 32
0.0
 13
1427.84757153937
 23
125.2139622372401
 33
0.0
  0
SOLID
  5
8BB6
330
8A75
100
AcDbEntity
  8
标注
100
AcDbTrace
 10
1427.739238206037
 20
142.5639262372406
 30
0.0
 11
1427.955904872703
 21
142.5639262372406
 31
0.0
 12
1427.84757153937
 22
143.2139262372407
 32
0.0
 13
1427.84757153937
 23
143.2139262372407
 33
0.0
  0
POINT
  5
8BB7
330
8A75
100
AcDbEntity
  8
DEFPOINTS
 62
     0
100
AcDbPoint
 10
1422.245458716027
 20
125.2139622372401
 30
0.0
  0
POINT
  5
8BB8
330
8A75
100
AcDbEntity
  8
DEFPOINTS
 62
     0
100
AcDbPoint
 10
1422.245458716027
 20
143.2139262372407
 30
0.0
  0
POINT
  5
8BB9
330
8A75
100
AcDbEntity
  8
DEFPOINTS
 62
     0
100
AcDbPoint
 10
1427.84757153937
 20
143.2139262372407
 30
0.0
  0
ENDBLK
  5
8A77
330
8A75
100
AcDbEntity
  8
0
100
AcDbBlockEnd
  0
BLOCK
  5
8A83
330
8A82
100
AcDbEntity
  8
0
100
AcDbBlockBegin
  2
*D172
 70
     1
 10
0.0
 20
0.0
 30
0.0
  3
*D172
  1

  0
LINE
  5
8BBA
330
8A82
100
AcDbEntity
  8
标注
  6
Continuous
370
    -2
100
AcDbLine
 10
1391.265520676027
 20
127.1235851586177
 30
0.0
 11
1391.265520676027
 21
123.0081042626146
 31
0.0
  0
LINE
  5
8BBB
330
8A82
100
AcDbEntity
  8
标注
  6
Continuous
370
    -2
100
AcDbLine
 10
1420.225462756027
 20
127.1235851586177
 30
0.0
 11
1420.225462756027
 21
123.0081042626146
 31
0.0
  0
LINE
  5
8BBC
330
8A82
100
AcDbEntity
  8
标注
  6
Continuous
370
    -2
100
AcDbLine
 10
1391.915520676027
 20
123.3281042626146
 30
0.0
 11
1404.813892125304
 21
123.3281042626146
 31
0.0
  0
LINE
  5
8BBD
330
8A82
100
AcDbEntity
  8
标注
  6
Continuous
370
    -2
100
AcDbLine
 10
1419.575462756027
 20
123.3281042626146
 30
0.0
 11
1406.67709130675
 21
123.3281042626146
 31
0.0
  0
SOLID
  5
8BBE
330
8A82
100
AcDbEntity
  8
标注
  6
Continuous
100
AcDbTrace
 10
1391.915520676027
 20
123.4364375959479
 30
0.0
 11
1391.915520676027
 21
123.2197709292812
 31
0.0
 12
1391.265520676027
 22
123.3281042626146
 32
0.0
 13
1391.265520676027
 23
123.3281042626146
 33
0.0
  0
SOLID
  5
8BBF
330
8A82
100
AcDbEntity
  8
标注
  6
Continuous
100
AcDbTrace
 10
1419.575462756027
 20
123.4364375959479
 30
0.0
 11
1419.575462756027
 21
123.2197709292812
 31
0.0
 12
1420.225462756027
 22
123.3281042626146
 32
0.0
 13
1420.225462756027
 23
123.3281042626146
 33
0.0
  0
MTEXT
  5
8BC0
330
8A82
100
AcDbEntity
  8
标注
  6
Continuous
370
    25
100
AcDbMText
 10
1405.745491716027
 20
123.3281042626146
 30
0.0
 40
0.65
 41
0.0
 71
     5
 72
     1
  1
\A1;29"
 73
     1
 44
1.0
1001
ACAD
1000
MTEXTBEGIN
1070
    73
1070
     1
1070
    44
1040
1.0
1070
    74
1070
     0
1000
MTEXTEND
  0
POINT
  5
8BC1
330
8A82
100
AcDbEntity
  8
DEFPOINTS
  6
Continuous
 62
     0
100
AcDbPoint
 10
1391.265520676027
 20
128.0035851586177
 30
0.0
  0
POINT
  5
8BC2
330
8A82
100
AcDbEntity
  8
DEFPOINTS
  6
Continuous
 62
     0
100
AcDbPoint
 10
1420.225462756027
 20
128.0035851586177
 30
0.0
  0
POINT
  5
8BC3
330
8A82
100
AcDbEntity
  8
DEFPOINTS
  6
Continuous
 62
     0
100
AcDbPoint
 10
1420.225462756027
 20
123.3281042626146
 30
0.0
  0
ENDBLK
  5
8A84
330
8A82
100
AcDbEntity
  8
0
100
AcDbBlockEnd
  0
BLOCK
  5
8A90
330
8A8F
100
AcDbEntity
  8
0
100
AcDbBlockBegin
  2
*D173
 70
     1
 10
0.0
 20
0.0
 30
0.0
  3
*D173
  1

  0
LINE
  5
8BC4
330
8A8F
100
AcDbEntity
  8
标注
370
    -2
100
AcDbLine
 10
1420.209987553932
 20
127.2339581972396
 30
0.0
 11
1424.203320330435
 21
127.2339581972396
 31
0.0
  0
LINE
  5
8BC5
330
8A8F
100
AcDbEntity
  8
标注
370
    -2
100
AcDbLine
 10
1420.209987553932
 20
141.1939302772393
 30
0.0
 11
1424.203320330435
 21
141.1939302772393
 31
0.0
  0
LINE
  5
8BC6
330
8A8F
100
AcDbEntity
  8
标注
370
    -2
100
AcDbLine
 10
1423.883320330435
 20
127.8839581972396
 30
0.0
 11
1423.883320330435
 21
133.3184803900362
 31
0.0
  0
LINE
  5
8BC7
330
8A8F
100
AcDbEntity
  8
标注
370
    -2
100
AcDbLine
 10
1423.883320330435
 20
140.5439302772393
 30
0.0
 11
1423.883320330435
 21
135.1094080844428
 31
0.0
  0
SOLID
  5
8BC8
330
8A8F
100
AcDbEntity
  8
标注
100
AcDbTrace
 10
1423.774986997101
 20
127.8839581972396
 30
0.0
 11
1423.991653663768
 21
127.8839581972396
 31
0.0
 12
1423.883320330435
 22
127.2339581972396
 32
0.0
 13
1423.883320330435
 23
127.2339581972396
 33
0.0
  0
SOLID
  5
8BC9
330
8A8F
100
AcDbEntity
  8
标注
100
AcDbTrace
 10
1423.774986997101
 20
140.5439302772393
 30
0.0
 11
1423.991653663768
 21
140.5439302772393
 31
0.0
 12
1423.883320330435
 22
141.1939302772393
 32
0.0
 13
1423.883320330435
 23
141.1939302772393
 33
0.0
  0
MTEXT
  5
8BCA
330
8A8F
100
AcDbEntity
  8
标注
100
AcDbMText
 10
1423.883320330435
 20
134.2139442372397
 30
0.0
 40
0.65
 41
0.0
 71
     5
 72
     1
  1
\A1;14"
 11
0.0000000000000001
 21
1.0
 31
0.0
 73
     1
 44
1.0
1001
ACAD
1000
MTEXTBEGIN
1070
    73
1070
     1
1070
    44
1040
1.0
1070
    74
1070
     0
1000
MTEXTEND
  0
POINT
  5
8BCB
330
8A8F
100
AcDbEntity
  8
DEFPOINTS
 62
     0
100
AcDbPoint
 10
1419.329987553932
 20
127.2339581972396
 30
0.0
  0
POINT
  5
8BCC
330
8A8F
100
AcDbEntity
  8
DEFPOINTS
 62
     0
100
AcDbPoint
 10
1419.329987553932
 20
141.1939302772393
 30
0.0
  0
POINT
  5
8BCD
330
8A8F
100
AcDbEntity
  8
DEFPOINTS
 62
     0
100
AcDbPoint
 10
1423.883320330435
 20
141.1939302772393
 30
0.0
  0
ENDBLK
  5
8A91
330
8A8F
100
AcDbEntity
  8
0
100
AcDbBlockEnd
  0
ENDSEC
  0
SECTION
  2
ENTITIES
  0
LINE
  5
899D
330
5F6E
100
AcDbEntity
  8
标注
  6
Continuous
 62
     7
370
    25
100
AcDbLine
 10
1407.802440351377
 20
135.2054843943356
 30
0.0
 11
1420.225462756027
 21
141.1939302772393
 31
0.0
  0
LINE
  5
899E
330
5F6E
100
AcDbEntity
  8
标注
  6
Continuous
 62
     7
370
    25
100
AcDbLine
 10
1407.802440351377
 20
133.2224040801452
 30
0.0
 11
1420.225462756027
 21
127.2339581972396
 31
0.0
  0
LINE
  5
899F
330
5F6E
100
AcDbEntity
  8
标注
  6
Continuous
 62
     7
370
    25
100
AcDbLine
 10
1391.265520676027
 20
127.2339581972396
 30
0.0
 11
1403.688543080678
 21
133.2224040801452
 31
0.0
  0
LINE
  5
89A0
330
5F6E
100
AcDbEntity
  8
标注
  6
Continuous
 62
     7
370
    25
100
AcDbLine
 10
1391.265520676027
 20
141.1939302772393
 30
0.0
 11
1403.688543080678
 21
135.2054843943356
 31
0.0
  0
LINE
  5
89A1
102
{ACAD_REACTORS
330
8A02
102
}
330
5F6E
100
AcDbEntity
  8
标注
  6
Continuous
 62
     7
370
    25
100
AcDbLine
 10
1420.225462756027
 20
141.1939302772393
 30
0.0
 11
1421.537549876395
 21
142.5060173976076
 31
0.0
  0
LINE
  5
89A2
102
{ACAD_REACTORS
330
89BB
102
}
330
5F6E
100
AcDbEntity
  8
标注
  6
Continuous
 62
     7
370
    25
100
AcDbLine
 10
1420.225462756027
 20
127.2339581972396
 30
0.0
 11
1420.225462756027
 21
141.1939302772393
 31
0.0
  0
LINE
  5
89A3
102
{ACAD_REACTORS
330
8A05
102
}
330
5F6E
100
AcDbEntity
  8
标注
  6
Continuous
 62
     7
370
    25
100
AcDbLine
 10
1421.537549876395
 20
142.5060173976076
 30
0.0
 11
1421.537549876395
 21
125.9218710769714
 31
0.0
  0
LINE
  5
89A4
330
5F6E
100
AcDbEntity
  8
标注
  6
Continuous
 62
     7
370
    25
100
AcDbLine
 10
1422.245458716027
 20
125.2139622372401
 30
0.0
 11
1422.245458716027
 21
143.2139262372407
 31
0.0
  0
LINE
  5
89A5
102
{ACAD_REACTORS
330
8A05
102
}
330
5F6E
100
AcDbEntity
  8
标注
  6
Continuous
 62
     7
370
    25
100
AcDbLine
 10
1420.225462756027
 20
127.2339581972396
 30
0.0
 11
1421.537549876396
 21
125.9218710769714
 31
0.0
  0
LINE
  5
89A6
330
5F6E
100
AcDbEntity
  8
标注
  6
Continuous
 62
     7
370
    25
100
AcDbLine
 10
1391.265520676027
 20
141.1939302772393
 30
0.0
 11
1389.953433555759
 21
142.5060173976094
 31
0.0
  0
LINE
  5
89A7
102
{ACAD_REACTORS
330
89BB
102
}
330
5F6E
100
AcDbEntity
  8
标注
  6
Continuous
 62
     7
370
    25
100
AcDbLine
 10
1391.265520676027
 20
141.1939302772393
 30
0.0
 11
1391.265520676027
 21
127.2339581972396
 31
0.0
  0
LINE
  5
89A8
330
5F6E
100
AcDbEntity
  8
标注
  6
Continuous
 62
     7
370
    25
100
AcDbLine
 10
1389.953433555759
 20
125.9218710769714
 30
0.0
 11
1389.953433555759
 21
142.5060173976094
 31
0.0
  0
LINE
  5
89A9
330
5F6E
100
AcDbEntity
  8
标注
  6
Continuous
 62
     7
370
    25
100
AcDbLine
 10
1389.245524716028
 20
143.2139262372407
 30
0.0
 11
1389.245524716028
 21
125.2139622372401
 31
0.0
  0
LINE
  5
89AA
102
{ACAD_REACTORS
330
8A05
102
}
330
5F6E
100
AcDbEntity
  8
标注
  6
Continuous
 62
     7
370
    25
100
AcDbLine
 10
1391.265520676027
 20
127.2339581972396
 30
0.0
 11
1389.953433555759
 21
125.9218710769714
 31
0.0
  0
LINE
  5
89AB
102
{ACAD_REACTORS
330
8A02
330
8A05
102
}
330
5F6E
100
AcDbEntity
  8
标注
  6
Continuous
 62
     7
370
    25
100
AcDbLine
 10
1421.537549876396
 20
125.9218710769714
 30
0.0
 11
1389.953433555759
 21
125.9218710769714
 31
0.0
  0
LINE
  5
89AC
102
{ACAD_REACTORS
330
89B8
102
}
330
5F6E
100
AcDbEntity
  8
标注
  6
Continuous
 62
     7
370
    25
100
AcDbLine
 10
1422.245458716027
 20
143.2139262372407
 30
0.0
 11
1389.245524716028
 21
143.2139262372407
 31
0.0
  0
LINE
  5
89AD
330
5F6E
100
AcDbEntity
  8
标注
  6
Continuous
 62
     7
370
    25
100
AcDbLine
 10
1389.953433555759
 20
142.5060173976076
 30
0.0
 11
1421.537549876395
 21
142.5060173976076
 31
0.0
  0
LINE
  5
89AE
102
{ACAD_REACTORS
330
89B5
330
89B8
102
}
330
5F6E
100
AcDbEntity
  8
标注
  6
Continuous
 62
     7
370
    25
100
AcDbLine
 10
1389.245524716028
 20
125.2139622372401
 30
0.0
 11
1422.245458716027
 21
125.2139622372401
 31
0.0
  0
LINE
  5
89AF
102
{ACAD_REACTORS
330
89BE
102
}
330
5F6E
100
AcDbEntity
  8
标注
  6
Continuous
 62
     7
370
    25
100
AcDbLine
 10
1420.225462756027
 20
141.1939302772393
 30
0.0
 11
1391.265520676027
 21
141.1939302772393
 31
0.0
  0
LINE
  5
89B0
102
{ACAD_REACTORS
330
89BE
102
}
330
5F6E
100
AcDbEntity
  8
标注
  6
Continuous
 62
     7
370
    25
100
AcDbLine
 10
1391.265520676027
 20
127.2339581972396
 30
0.0
 11
1420.225462756027
 21
127.2339581972396
 31
0.0
  0
CIRCLE
  5
89B1
330
5F6E
100
AcDbEntity
  8
0
370
    25
100
AcDbCircle
 10
1405.745491716027
 20
134.2139442372395
 30
0.0
 40
2.12598
  0
CIRCLE
  5
89B2
330
5F6E
100
AcDbEntity
  8
0
370
    25
100
AcDbCircle
 10
1405.745491716027
 20
134.2139442372395
 30
0.0
 40
2.28346
  0
DIMENSION
  5
89B3
102
{ACAD_XDICTIONARY
360
89B4
102
}
102
{ACAD_REACTORS
330
89B5
102
}
330
5F6E
100
AcDbEntity
  8
标注
100
AcDbDimension
  2
*D170
 10
1422.245458716027
 20
120.0045156717556
 30
0.0
 11
1405.745491716027
 21
120.0045156717556
 31
0.0
 70
   160
  1
{\fTimes New Roman|b1|i0|c238|p18;<>}
 71
     5
 42
32.99993399999948
  3
副本STANDARD
100
AcDbAlignedDimension
 13
1389.245524716028
 23
125.2139622372401
 33
0.0
 14
1422.245458716027
 24
125.2139622372401
 34
0.0
100
AcDbRotatedDimension
  0
DIMENSION
  5
89B6
102
{ACAD_XDICTIONARY
360
89B7
102
}
102
{ACAD_REACTORS
330
89B8
102
}
330
5F6E
100
AcDbEntity
  8
标注
100
AcDbDimension
  2
*D171
 10
1427.84757153937
 20
143.2139262372407
 30
0.0
 11
1427.847571539371
 21
134.2139442372413
 31
0.0
 70
   160
  1
{\fTimes New Roman|b1|i0|c238|p18;<>}
 71
     5
 42
17.99996400000054
  3
副本STANDARD
100
AcDbAlignedDimension
 13
1422.245458716027
 23
125.2139622372401
 33
0.0
 14
1422.245458716027
 24
143.2139262372407
 34
0.0
 50
90.0
100
AcDbRotatedDimension
  0
DIMENSION
  5
89B9
102
{ACAD_XDICTIONARY
360
89BA
102
}
102
{ACAD_REACTORS
330
89BB
102
}
330
5F6E
100
AcDbEntity
  8
标注
  6
Continuous
 62
     7
370
    25
100
AcDbDimension
  2
*D172
 10
1420.225462756027
 20
123.3281042626146
 30
0.0
 11
1405.745491716027
 21
123.3281042626146
 31
0.0
 70
    32
 71
     5
 42
28.95994208000047
  3
副本STANDARD
100
AcDbAlignedDimension
 13
1391.265520676027
 23
128.0035851586177
 33
0.0
 14
1420.225462756027
 24
128.0035851586177
 34
0.0
100
AcDbRotatedDimension
  0
DIMENSION
  5
89BC
102
{ACAD_XDICTIONARY
360
89BD
102
}
102
{ACAD_REACTORS
330
89BE
102
}
330
5F6E
100
AcDbEntity
  8
标注
100
AcDbDimension
  2
*D173
 10
1423.883320330435
 20
141.1939302772393
 30
0.0
 11
1423.883320330435
 21
134.2139442372397
 31
0.0
 70
    32
 71
     5
 42
13.95997207999971
  3
副本STANDARD
100
AcDbAlignedDimension
 13
1419.329987553932
 23
127.2339581972396
 33
0.0
 14
1419.329987553932
 24
141.1939302772393
 34
0.0
 50
90.0
100
AcDbRotatedDimension
  0
CIRCLE
  5
89C0
330
5F6E
100
AcDbEntity
  8
0
370
    25
100
AcDbCircle
 10
1405.745491716027
 20
134.2139442372395
 30
0.0
 40
1.77165
  0
LINE
  5
89C3
330
5F6E
100
AcDbEntity
  8
标注
  6
Continuous
 62
     7
370
    25
100
AcDbLine
 10
1422.836008716027
 20
164.2209367767707
 30
0.0
 11
1422.245458716027
 21
164.2209367767707
 31
0.0
  0
LINE
  5
89C4
330
5F6E
100
AcDbEntity
  8
标注
  6
Continuous
 62
     7
370
    25
100
AcDbLine
 10
1422.245458716027
 20
164.2209367767707
 30
0.0
 11
1421.577567685903
 21
164.2209367767707
 31
0.0
  0
ARC
  5
89C5
330
5F6E
100
AcDbEntity
  8
0
  6
ACAD_ISO02W100
 62
     4
 48
3.0
370
    25
100
AcDbCircle
 10
1421.577567685903
 20
164.1225117767706
 30
0.0
 40
0.0984249999999284
100
AcDbArc
 50
90.0
 51
134.9999999999954
  0
LINE
  5
89C6
330
5F6E
100
AcDbEntity
  8
0
  6
ACAD_ISO02W100
 62
     4
370
    25
100
AcDbLine
 10
1421.507970700965
 20
164.192108761709
 30
0.0
 11
1420.254605731089
 21
162.9387437918328
 31
0.0
  0
ARC
  5
89C7
330
5F6E
100
AcDbEntity
  8
0
  6
ACAD_ISO02W100
 62
     4
370
    25
100
AcDbCircle
 10
1420.324202716027
 20
162.8691468068943
 30
0.0
 40
0.0984249999999913
100
AcDbArc
 50
134.9999999999954
 51
180.0
  0
LINE
  5
89C8
330
5F6E
100
AcDbEntity
  8
0
  6
ACAD_ISO02W100
 62
     4
370
    25
100
AcDbLine
 10
1420.225777716027
 20
162.8691468068943
 30
0.0
 11
1420.225777716027
 21
154.7603257767702
 31
0.0
  0
ARC
  5
89C9
330
5F6E
100
AcDbEntity
  8
0
  6
ACAD_ISO02W100
 62
     4
370
    25
100
AcDbCircle
 10
1420.186407716027
 20
154.7603257767702
 30
0.0
 40
0.03937
100
AcDbArc
 50
270.0
 51
0.0
  0
LINE
  5
89CA
330
5F6E
100
AcDbEntity
  8
0
  6
ACAD_ISO02W100
 62
     4
370
    25
100
AcDbLine
 10
1420.186407716027
 20
154.7209557767699
 30
0.0
 11
1408.098223004433
 21
154.7209557767699
 31
0.0
  0
ARC
  5
89CB
330
5F6E
100
AcDbEntity
  8
0
  6
ACAD_ISO02W100
 62
     4
370
    25
100
AcDbCircle
 10
1408.098223004433
 20
154.6422157767708
 30
0.0
 40
0.0787399999999284
100
AcDbArc
 50
90.0
 51
161.7712601168813
  0
LINE
  5
89CC
330
5F6E
100
AcDbEntity
  8
0
  6
ACAD_ISO02W100
 62
     4
370
    25
100
AcDbLine
 10
1408.023434550618
 20
154.6668465456575
 30
0.0
 11
1407.984132991411
 21
154.5475119500122
 31
0.0
  0
LINE
  5
89CD
330
5F6E
100
AcDbEntity
  8
0
  6
ACAD_ISO02W100
 62
     4
370
    25
100
AcDbLine
 10
1403.506850440643
 20
154.5475119500122
 30
0.0
 11
1403.467548881436
 21
154.6668465456575
 31
0.0
  0
ARC
  5
89CE
330
5F6E
100
AcDbEntity
  8
0
  6
ACAD_ISO02W100
 62
     4
370
    25
100
AcDbCircle
 10
1403.392760427621
 20
154.6422157767708
 30
0.0
 40
0.0787400000000052
100
AcDbArc
 50
18.22873988311865
 51
90.0
  0
LINE
  5
89CF
330
5F6E
100
AcDbEntity
  8
0
  6
ACAD_ISO02W100
 62
     4
370
    25
100
AcDbLine
 10
1403.392760427621
 20
154.7209557767699
 30
0.0
 11
1391.304575716028
 21
154.7209557767699
 31
0.0
  0
ARC
  5
89D0
330
5F6E
100
AcDbEntity
  8
0
  6
ACAD_ISO02W100
 62
     4
370
    25
100
AcDbCircle
 10
1391.304575716028
 20
154.7603257767702
 30
0.0
 40
0.03937
100
AcDbArc
 50
180.0
 51
270.0
  0
LINE
  5
89D1
330
5F6E
100
AcDbEntity
  8
0
  6
ACAD_ISO02W100
 62
     4
370
    25
100
AcDbLine
 10
1391.265205716027
 20
154.7603257767702
 30
0.0
 11
1391.265205716027
 21
162.8691468068943
 31
0.0
  0
ARC
  5
89D2
330
5F6E
100
AcDbEntity
  8
0
  6
ACAD_ISO02W100
 62
     4
370
    25
100
AcDbCircle
 10
1391.166780716027
 20
162.8691468068943
 30
0.0
 40
0.098425
100
AcDbArc
 50
0.0
 51
45.00000000000455
  0
LINE
  5
89D3
330
5F6E
100
AcDbEntity
  8
0
  6
ACAD_ISO02W100
 62
     4
370
    25
100
AcDbLine
 10
1391.236377700965
 20
162.9387437918328
 30
0.0
 11
1389.983012731089
 21
164.192108761709
 31
0.0
  0
ARC
  5
89D4
330
5F6E
100
AcDbEntity
  8
0
  6
ACAD_ISO02W100
 62
     4
370
    25
100
AcDbCircle
 10
1389.913415746151
 20
164.1225117767706
 30
0.0
 40
0.0984249999999407
100
AcDbArc
 50
45.00000000000455
 51
90.0
  0
LINE
  5
89D5
330
5F6E
100
AcDbEntity
  8
标注
  6
Continuous
 62
     7
370
    25
100
AcDbLine
 10
1389.913415746151
 20
164.2209367767707
 30
0.0
 11
1389.245524716028
 21
164.2209367767707
 31
0.0
  0
LINE
  5
89D6
330
5F6E
100
AcDbEntity
  8
标注
  6
Continuous
 62
     7
370
    25
100
AcDbLine
 10
1389.245524716028
 20
164.2209367767707
 30
0.0
 11
1388.654974716027
 21
164.2209367767707
 31
0.0
  0
LINE
  5
89D7
330
5F6E
100
AcDbEntity
  8
标注
 62
     7
370
    25
100
AcDbLine
 10
1422.836008716027
 20
164.161881776771
 30
0.0
 11
1422.245458716027
 21
164.161881776771
 31
0.0
  0
LINE
  5
89D8
330
5F6E
100
AcDbEntity
  8
标注
  6
Continuous
 62
     7
370
    25
100
AcDbLine
 10
1422.245458716027
 20
164.161881776771
 30
0.0
 11
1421.577567685903
 21
164.161881776771
 31
0.0
  0
ARC
  5
89D9
330
5F6E
100
AcDbEntity
  8
标注
  6
Continuous
 62
     7
370
    25
100
AcDbCircle
 10
1421.577567685903
 20
164.1225117767706
 30
0.0
 40
0.0393699999999284
100
AcDbArc
 50
90.0
 51
134.9999999999954
  0
LINE
  5
89DA
330
5F6E
100
AcDbEntity
  8
标注
  6
Continuous
 62
     7
370
    25
100
AcDbLine
 10
1421.549728891928
 20
164.1503505707467
 30
0.0
 11
1420.284832716027
 21
162.8854543948444
 31
0.0
  0
ARC
  5
89DB
330
5F6E
100
AcDbEntity
  8
标注
  6
Continuous
 62
     7
370
    25
100
AcDbCircle
 10
1420.324202716027
 20
162.8691468068943
 30
0.0
 40
0.0393700000000067
100
AcDbArc
 50
134.9999999999954
 51
180.0
  0
LINE
  5
89DC
330
5F6E
100
AcDbEntity
  8
标注
  6
Continuous
 62
     7
370
    25
100
AcDbLine
 10
1420.284832716027
 20
162.8854543948444
 30
0.0
 11
1420.284832716027
 21
154.7603257767702
 31
0.0
  0
ARC
  5
89DD
330
5F6E
100
AcDbEntity
  8
标注
  6
Continuous
 62
     7
370
    25
100
AcDbCircle
 10
1420.186407716028
 20
154.7603257767702
 30
0.0
 40
0.098425
100
AcDbArc
 50
270.0
 51
0.0
  0
LINE
  5
89DE
330
5F6E
100
AcDbEntity
  8
标注
  6
Continuous
 62
     7
370
    25
100
AcDbLine
 10
1420.186407716028
 20
154.6619007767701
 30
0.0
 11
1408.098223004433
 21
154.6619007767701
 31
0.0
  0
ARC
  5
89DF
330
5F6E
100
AcDbEntity
  8
标注
  6
Continuous
 62
     7
370
    25
100
AcDbCircle
 10
1408.098223004433
 20
154.6422157767708
 30
0.0
 40
0.0196849999999642
100
AcDbArc
 50
90.0
 51
161.7712601168813
  0
LINE
  5
89E0
330
5F6E
100
AcDbEntity
  8
标注
  6
Continuous
 62
     7
370
    25
100
AcDbLine
 10
1408.07952589098
 20
154.6483734689925
 30
0.0
 11
1408.040224331773
 21
154.5290388733453
 31
0.0
  0
ARC
  5
89E1
330
5F6E
100
AcDbEntity
  8
标注
  6
Continuous
 62
     7
370
    25
100
AcDbCircle
 10
1407.965435877958
 20
154.5536696422339
 30
0.0
 40
0.0787399999998924
100
AcDbArc
 50
270.0
 51
341.7712601168813
  0
LINE
  5
89E2
330
5F6E
100
AcDbEntity
  8
标注
 62
     7
370
    25
100
AcDbLine
 10
1407.965435877958
 20
154.474929642233
 30
0.0
 11
1407.51708041881
 21
154.474929642233
 31
0.0
  0
ARC
  5
89E3
330
5F6E
100
AcDbEntity
  8
标注
  6
Continuous
 62
     7
370
    25
100
AcDbCircle
 10
1391.304575716028
 20
154.7603257767702
 30
0.0
 40
0.098425
100
AcDbArc
 50
180.0
 51
270.0
  0
LINE
  5
89E4
330
5F6E
100
AcDbEntity
  8
标注
  6
Continuous
 62
     7
370
    25
100
AcDbLine
 10
1391.206150716027
 20
154.7603257767702
 30
0.0
 11
1391.206150716027
 21
162.8691468068943
 31
0.0
  0
ARC
  5
89E5
330
5F6E
100
AcDbEntity
  8
标注
  6
Continuous
 62
     7
370
    25
100
AcDbCircle
 10
1391.166780716027
 20
162.8691468068943
 30
0.0
 40
0.03937
100
AcDbArc
 50
0.0
 51
45.00000000000455
  0
LINE
  5
89E6
330
5F6E
100
AcDbEntity
  8
标注
  6
Continuous
 62
     7
370
    25
100
AcDbLine
 10
1391.194619510002
 20
162.8969856008686
 30
0.0
 11
1389.941254540126
 21
164.1503505707467
 31
0.0
  0
ARC
  5
89E7
330
5F6E
100
AcDbEntity
  8
标注
  6
Continuous
 62
     7
370
    25
100
AcDbCircle
 10
1389.913415746151
 20
164.1225117767706
 30
0.0
 40
0.0393700000000573
100
AcDbArc
 50
45.00000000000455
 51
90.0
  0
LINE
  5
89E8
330
5F6E
100
AcDbEntity
  8
标注
  6
Continuous
 62
     7
370
    25
100
AcDbLine
 10
1389.913415746151
 20
164.161881776771
 30
0.0
 11
1389.245524716028
 21
164.161881776771
 31
0.0
  0
LINE
  5
89E9
330
5F6E
100
AcDbEntity
  8
标注
  6
Continuous
 62
     7
370
    25
100
AcDbLine
 10
1389.245524716028
 20
164.161881776771
 30
0.0
 11
1388.654974716027
 21
164.161881776771
 31
0.0
  0
LINE
  5
89EA
330
5F6E
100
AcDbEntity
  8
标注
  6
Continuous
 62
     7
370
    25
100
AcDbLine
 10
1422.836008716027
 20
164.161881776771
 30
0.0
 11
1422.836008716027
 21
164.2209367767707
 31
0.0
  0
LINE
  5
89EB
330
5F6E
100
AcDbEntity
  8
标注
  6
Continuous
 62
     7
370
    25
100
AcDbLine
 10
1388.654974716027
 20
164.161881776771
 30
0.0
 11
1388.654974716027
 21
164.2209367767707
 31
0.0
  0
LINE
  5
89EC
330
5F6E
100
AcDbEntity
  8
标注
  6
Continuous
 62
     7
370
    25
100
AcDbLine
 10
1389.913415746151
 20
164.2209367767707
 30
0.0
 11
1421.577567685903
 21
164.2209367767707
 31
0.0
  0
LINE
  5
89ED
102
{ACAD_REACTORS
330
89FE
102
}
330
5F6E
100
AcDbEntity
  8
0
  6
ACAD_ISO02W100
 62
     4
370
    25
100
AcDbLine
 10
1391.256365155079
 20
162.9099157767712
 30
0.0
 11
1420.234618276976
 21
162.9099157767712
 31
0.0
  0
LINE
  5
89EE
330
5F6E
100
AcDbEntity
  8
0
  6
ACAD_ISO02W100
 62
     4
370
    25
100
AcDbLine
 10
1403.973903013246
 20
154.5339846422328
 30
0.0
 11
1407.51708041881
 21
154.5339846422328
 31
0.0
  0
LINE
  5
89EF
330
5F6E
100
AcDbEntity
  8
标注
  6
Continuous
 62
     7
370
    25
100
AcDbLine
 10
1403.973903013246
 20
154.474929642233
 30
0.0
 11
1407.51708041881
 21
154.474929642233
 31
0.0
  0
ARC
  5
89F0
330
5F6E
100
AcDbEntity
  8
0
  6
ACAD_ISO02W100
 62
     4
370
    25
100
AcDbCircle
 10
1407.965435877958
 20
154.5536696422339
 30
0.0
 40
0.019685
100
AcDbArc
 50
270.0
 51
341.7712601168813
  0
LINE
  5
89F1
330
5F6E
100
AcDbEntity
  8
0
  6
ACAD_ISO02W100
 62
     4
370
    25
100
AcDbLine
 10
1407.965435877958
 20
154.5339846422328
 30
0.0
 11
1407.51708041881
 21
154.5339846422328
 31
0.0
  0
LINE
  5
89F2
330
5F6E
100
AcDbEntity
  8
0
  6
ACAD_ISO02W100
 62
     4
370
    25
100
AcDbLine
 10
1403.525547554097
 20
154.5339846422328
 30
0.0
 11
1403.973903013246
 21
154.5339846422328
 31
0.0
  0
ARC
  5
89F3
330
5F6E
100
AcDbEntity
  8
0
  6
ACAD_ISO02W100
 62
     4
370
    25
100
AcDbCircle
 10
1403.525547554097
 20
154.5536696422339
 30
0.0
 40
0.019685
100
AcDbArc
 50
198.2287398831186
 51
270.0
  0
LINE
  5
89F4
330
5F6E
100
AcDbEntity
  8
标注
  6
Continuous
 62
     7
370
    25
100
AcDbLine
 10
1403.525547554097
 20
154.474929642233
 30
0.0
 11
1403.973903013246
 21
154.474929642233
 31
0.0
  0
ARC
  5
89F5
330
5F6E
100
AcDbEntity
  8
标注
  6
Continuous
 62
     7
370
    25
100
AcDbCircle
 10
1403.525547554097
 20
154.5536696422339
 30
0.0
 40
0.07874
100
AcDbArc
 50
198.2287398831186
 51
270.0
  0
LINE
  5
89F6
330
5F6E
100
AcDbEntity
  8
标注
  6
Continuous
 62
     7
370
    25
100
AcDbLine
 10
1403.411457541074
 20
154.6483734689925
 30
0.0
 11
1403.450759100282
 21
154.5290388733453
 31
0.0
  0
ARC
  5
89F7
330
5F6E
100
AcDbEntity
  8
标注
  6
Continuous
 62
     7
370
    25
100
AcDbCircle
 10
1403.392760427621
 20
154.6422157767708
 30
0.0
 40
0.019685
100
AcDbArc
 50
18.22873988311865
 51
90.0
  0
LINE
  5
89F8
330
5F6E
100
AcDbEntity
  8
0
  6
ACAD_ISO02W100
 62
     4
370
    25
100
AcDbLine
 10
1403.392760427621
 20
154.7209557767699
 30
0.0
 11
1408.098223004433
 21
154.7209557767699
 31
0.0
  0
LINE
  5
89F9
330
5F6E
100
AcDbEntity
  8
0
  6
ACAD_ISO02W100
 62
     4
370
    25
100
AcDbLine
 10
1403.973903013246
 20
154.474929642233
 30
0.0
 11
1403.973903013246
 21
154.5339846422328
 31
0.0
  0
LINE
  5
89FA
330
5F6E
100
AcDbEntity
  8
0
  6
ACAD_ISO02W100
 62
     4
 48
3.0
370
    25
100
AcDbLine
 10
1407.51708041881
 20
154.474929642233
 30
0.0
 11
1407.51708041881
 21
154.5339846422328
 31
0.0
  0
LINE
  5
89FB
330
5F6E
100
AcDbEntity
  8
标注
  6
Continuous
 62
     7
370
    25
100
AcDbLine
 10
1391.304575716028
 20
154.6619007767701
 30
0.0
 11
1403.392760427621
 21
154.6619007767701
 31
0.0
  0
DIMENSION
  5
89FC
102
{ACAD_XDICTIONARY
360
89FD
102
}
102
{ACAD_REACTORS
330
89FE
102
}
330
5F6E
100
AcDbEntity
  8
标注
100
AcDbDimension
  2
*D165
 10
1421.993648708598
 20
154.7209557767699
 30
0.0
 11
1421.993648708598
 21
158.8154357767707
 31
0.0
 70
    32
 71
     5
 42
8.188960000001316
  3
副本STANDARD
100
AcDbAlignedDimension
 13
1420.234618276976
 23
162.9099157767712
 33
0.0
 14
1420.186407716027
 24
154.7209557767699
 34
0.0
 50
90.0
100
AcDbRotatedDimension
  0
DIMENSION
  5
89FF
330
5F6E
100
AcDbEntity
  8
标注
100
AcDbDimension
  2
*D164
 10
1424.448221629789
 20
164.2209367767707
 30
0.0
 11
1424.448221629789
 21
159.4709462767705
 31
0.0
 70
    32
 71
     5
 42
9.499981000000843
  3
副本STANDARD
100
AcDbAlignedDimension
 13
1420.186407716027
 23
154.7209557767699
 33
0.0
 14
1422.836008716027
 24
164.2209367767707
 34
0.0
 50
90.0
100
AcDbRotatedDimension
  0
DIMENSION
  5
8A00
102
{ACAD_XDICTIONARY
360
8A01
102
}
102
{ACAD_REACTORS
330
8A02
102
}
330
5F6E
100
AcDbEntity
  8
标注
  6
Continuous
 62
     7
370
    25
100
AcDbDimension
  2
*D166
 10
1425.969778283403
 20
125.9218710769714
 30
0.0
 11
1425.969778283403
 21
134.2139442372897
 31
0.0
 70
    32
 71
     5
 42
16.58414632063613
  3
副本STANDARD
100
AcDbAlignedDimension
 13
1421.537549876395
 23
142.5060173976076
 33
0.0
 14
1421.537549876396
 24
125.9218710769714
 34
0.0
 50
90.0
100
AcDbRotatedDimension
  0
DIMENSION
  5
8A03
102
{ACAD_XDICTIONARY
360
8A04
102
}
102
{ACAD_REACTORS
330
8A05
102
}
330
5F6E
100
AcDbEntity
  8
标注
  6
Continuous
 62
     7
370
    25
100
AcDbDimension
  2
*D167
 10
1421.537549876395
 20
121.7206671373356
 30
0.0
 11
1405.745491716077
 21
121.7206671373356
 31
0.0
 70
    32
 71
     5
 42
31.58411632063689
  3
副本STANDARD
100
AcDbAlignedDimension
 13
1389.953433555759
 23
125.9218710769714
 33
0.0
 14
1421.537549876395
 24
125.9218710769733
 34
0.0
100
AcDbRotatedDimension
  0
LINE
  5
8A06
330
5F6E
100
AcDbEntity
  8
标注
  6
Continuous
 62
     7
370
    25
100
AcDbLine
 10
1420.284832716027
 20
162.8854543948444
 30
0.0
 11
1391.203153853222
 21
162.8842130536257
 31
0.0
  0
LINE
  5
8A07
330
5F6E
100
AcDbEntity
  8
标注
  6
Continuous
 62
     7
370
    25
100
AcDbLine
 10
1408.098223004433
 20
154.6619007767701
 30
0.0
 11
1403.392760427621
 21
154.6619007767701
 31
0.0
  0
LINE
  5
8A08
330
5F6E
100
AcDbEntity
  8
标注
  6
Continuous
 62
     7
370
    25
100
AcDbLine
 10
1421.577567685903
 20
164.161881776771
 30
0.0
 11
1389.913415746151
 21
164.161881776771
 31
0.0
  0
LWPOLYLINE
  5
8A09
102
{ACAD_REACTORS
330
8A0C
330
8A0F
102
}
330
5F6E
100
AcDbEntity
  8
中心线
  6
Continuous
 62
     1
100
AcDbPolyline
 90
        4
 70
     1
 43
0.0
 10
1389.210068285448
 20
107.1621757818387
 10
1420.784808285448
 20
107.1621757818387
 10
1420.784808285448
 20
90.58740578183948
 10
1389.210068285448
 20
90.58740578183948
1001
GENIUS_GENREC_14
1002
{
1000
PYDIR
1011
1389.328178285449
1021
90.70551578183893
1031
0.0
1002
}
1002
{
1000
PXDIR
1011
1420.666698285449
1021
107.0440657818393
1031
0.0
1002
}
1002
{
1000
PORI
1011
1389.328178285449
1021
107.0440657818393
1031
0.0
1002
}
1002
{
1000
PINS
1011
1389.328178285449
1021
107.0440657818393
1031
0.0
1002
}
1002
{
1000
PINS2
1011
1420.666698285449
1021
90.70551578183893
1031
0.0
1002
}
1002
{
1000
C
1070
     1
1002
}
1001
GENIUS_GENOBJ-N-REC_13
1002
{
1000
OWNER
1000
GEN
1002
}
1001
GENIUS_GENODEF_13
1002
{
1000
HIER
1070
     0
1002
}
1002
{
1000
MANEDIT
1070
     0
1002
}
1002
{
1000
NOSEL
1070
     0
1002
}
1002
{
1000
BEHIND
1070
     0
1002
}
1002
{
1000
OTHER
1070
     0
1002
}
1002
{
1000
REACTOR
1002
}
  0
DIMENSION
  5
8A0A
102
{ACAD_XDICTIONARY
360
8A0B
102
}
102
{ACAD_REACTORS
330
8A0C
102
}
330
5F6E
100
AcDbEntity
  8
标注
 62
     3
100
AcDbDimension
  2
*D168
 10
1420.784808285448
 20
87.65248897871158
 30
0.0
 11
1404.997438285448
 21
87.65248897871158
 31
0.0
 70
    32
 71
     5
 42
31.57474000000002
  3
副本STANDARD
100
AcDbAlignedDimension
 13
1389.210068285448
 23
90.58740578183948
 33
0.0
 14
1420.784808285448
 24
90.58740578183948
 34
0.0
100
AcDbRotatedDimension
1001
ACAD
1000
DSTYLE
1002
{
1070
    49
1040
8.0
1070
    50
1040
0.7853981633974483
1070
    90
1070
     1
1070
   345
1005
5F5C
1070
   346
1005
5F5C
1070
   347
1005
5F5C
1002
}
  0
DIMENSION
  5
8A0D
102
{ACAD_XDICTIONARY
360
8A0E
102
}
102
{ACAD_REACTORS
330
8A0F
102
}
330
5F6E
100
AcDbEntity
  8
标注
 62
     3
100
AcDbDimension
  2
*D169
 10
1423.648208405755
 20
107.1621757818387
 30
0.0
 11
1423.648208405755
 21
98.87479078183936
 31
0.0
 70
    32
 71
     5
 42
16.57476999999926
  3
副本STANDARD
100
AcDbAlignedDimension
 13
1420.784808285448
 23
90.58740578183948
 33
0.0
 14
1420.784808285448
 24
107.1621757818387
 34
0.0
 50
90.0
100
AcDbRotatedDimension
1001
ACAD
1000
DSTYLE
1002
{
1070
    49
1040
8.0
1070
    50
1040
0.7853981633974483
1070
    90
1070
     1
1070
   345
1005
5F5C
1070
   346
1005
5F5C
1070
   347
1005
5F5C
1002
}
  0
TEXT
  5
8B77
330
5F6E
100
AcDbEntity
  8
标注
100
AcDbText
 10
1405.518569634326
 20
83.4271441848721
 30
0.0
 40
0.7874015748031497
  1
 CUTOUT
100
AcDbText
  0
LINE
  5
8B78
330
5F6E
100
AcDbEntity
  8
中心线
  6
Continuous
 62
     1
100
AcDbLine
 10
1397.853163553758
 20
83.68034565217692
 30
0.0
 11
1404.069968557842
 21
83.68034565217692
 31
0.0
  0
TEXT
  5
8B79
330
5F6E
100
AcDbEntity
  8
标注
100
AcDbText
 10
1401.155804175684
 20
115.4549037170672
 30
0.0
 40
0.7874015748031497
  1
OVERHEAD VIEW
100
AcDbText
  0
TEXT
  5
8B7A
330
5F6E
100
AcDbEntity
  8
标注
100
AcDbText
 10
1402.601302546128
 20
151.2156996562584
 30
0.0
 40
0.7874015748031497
  1
FRONT VIEW
100
AcDbText
  0
ENDSEC
  0
SECTION
  2
OBJECTS
  0
DICTIONARY
  5
5F06
330
0
100
AcDbDictionary
281
     1
  3
ACAD_2007HEADERVARS_RT
350
8C18
  3
ACAD_COLOR
350
5F64
  3
ACAD_GROUP
350
5F07
  3
ACAD_LAYOUT
350
5F63
  3
ACAD_MATERIAL
350
5F0A
  3
ACAD_MLEADERSTYLE
350
5F67
  3
ACAD_MLINESTYLE
350
5F60
  3
ACAD_PLOTSETTINGS
350
5F62
  3
ACAD_PLOTSTYLENAME
350
5F08
  3
ACAD_SCALELIST
350
5F34
  3
ACAD_TABLESTYLE
350
5F65
  3
ACAD_VISUALSTYLE
350
5F23
  3
ACDB_RECOMPOSE_DATA
350
6F70
  3
AcDbVariableDictionary
350
6102
  3
DWGPROPS
350
8C17
  3
lxx_dict
350
60F2
  0
DICTIONARY
  5
61B7
330
5EFC
100
AcDbDictionary
280
     1
281
     1
  3
ACAD_LAYERSTATES
360
61B8
  0
DICTIONARY
  5
60F4
330
5F56
100
AcDbDictionary
280
     1
281
     1
  3
ADSK_XREC_LAYER_RECONCILED
360
60F5
  0
DICTIONARY
  5
60F6
330
5F72
100
AcDbDictionary
280
     1
281
     1
  3
ADSK_XREC_LAYER_RECONCILED
360
60F7
  0
DICTIONARY
  5
60F8
330
5F7D
100
AcDbDictionary
280
     1
281
     1
  3
ADSK_XREC_LAYER_RECONCILED
360
60F9
  0
DICTIONARY
  5
60FA
330
5F7E
100
AcDbDictionary
280
     1
281
     1
  3
ADSK_XREC_LAYER_RECONCILED
360
60FB
  0
DICTIONARY
  5
60FC
330
5F80
100
AcDbDictionary
280
     1
281
     1
  3
ADSK_XREC_LAYER_RECONCILED
360
60FD
  0
DICTIONARY
  5
654F
330
5F6E
100
AcDbDictionary
280
     1
281
     1
  3
ACAD_SORTENTS
360
6550
  0
DICTIONARY
  5
89B4
330
89B3
100
AcDbDictionary
280
     1
281
     1
  3
ACAD_DIMASSOC
360
89B5
  0
DICTIONARY
  5
89B7
330
89B6
100
AcDbDictionary
280
     1
281
     1
  3
ACAD_DIMASSOC
360
89B8
  0
DICTIONARY
  5
89BA
330
89B9
100
AcDbDictionary
280
     1
281
     1
  3
ACAD_DIMASSOC
360
89BB
  0
DICTIONARY
  5
89BD
330
89BC
100
AcDbDictionary
280
     1
281
     1
  3
ACAD_DIMASSOC
360
89BE
  0
DICTIONARY
  5
89FD
330
89FC
100
AcDbDictionary
280
     1
281
     1
  3
ACAD_DIMASSOC
360
89FE
  0
DICTIONARY
  5
8A01
330
8A00
100
AcDbDictionary
280
     1
281
     1
  3
ACAD_DIMASSOC
360
8A02
  0
DICTIONARY
  5
8A04
330
8A03
100
AcDbDictionary
280
     1
281
     1
  3
ACAD_DIMASSOC
360
8A05
  0
DICTIONARY
  5
8A0B
330
8A0A
100
AcDbDictionary
280
     1
281
     1
  3
ACAD_DIMASSOC
360
8A0C
  0
DICTIONARY
  5
8A0E
330
8A0D
100
AcDbDictionary
280
     1
281
     1
  3
ACAD_DIMASSOC
360
8A0F
  0
DICTIONARY
  5
8C18
102
{ACAD_REACTORS
330
5F06
102
}
330
5F06
100
AcDbDictionary
281
     1
  3
DIMFXL
350
8C19
  3
DIMJOGANG
350
8C1A
  3
DIMLTEX1
350
8C1C
  3
DIMLTEX2
350
8C1D
  3
DIMLTYPE
350
8C1B
  0
DICTIONARY
  5
5F64
102
{ACAD_REACTORS
330
5F06
102
}
330
5F06
100
AcDbDictionary
281
     1
  0
DICTIONARY
  5
5F07
102
{ACAD_REACTORS
330
5F06
102
}
330
5F06
100
AcDbDictionary
281
     1
  0
DICTIONARY
  5
5F63
102
{ACAD_REACTORS
330
5F06
102
}
330
5F06
100
AcDbDictionary
281
     1
  3
Model
350
5F71
  3
布局1
350
5F6D
  0
DICTIONARY
  5
5F0A
102
{ACAD_REACTORS
330
5F06
102
}
330
5F06
100
AcDbDictionary
281
     1
  3
ByBlock
350
5F13
  3
ByLayer
350
5F0B
  3
Global
350
5F1B
  0
DICTIONARY
  5
5F67
102
{ACAD_REACTORS
330
5F06
102
}
330
5F06
100
AcDbDictionary
281
     1
  3
Standard
350
5F68
  0
DICTIONARY
  5
5F60
102
{ACAD_REACTORS
330
5F06
102
}
330
5F06
100
AcDbDictionary
281
     1
  3
Standard
350
5F61
  0
DICTIONARY
  5
5F62
102
{ACAD_REACTORS
330
5F06
102
}
330
5F06
100
AcDbDictionary
281
     1
  0
ACDBDICTIONARYWDFLT
  5
5F08
102
{ACAD_REACTORS
330
5F06
102
}
330
5F06
100
AcDbDictionary
281
     1
  3
Normal
350
5F09
100
AcDbDictionaryWithDefault
340
5F09
  0
DICTIONARY
  5
5F34
102
{ACAD_REACTORS
330
5F06
102
}
330
5F06
100
AcDbDictionary
281
     1
  3
A0
350
5F35
  3
A1
350
5F36
  3
A2
350
5F37
  3
A3
350
5F38
  3
A4
350
5F39
  3
A5
350
5F3A
  3
A6
350
5F3B
  3
A7
350
5F3C
  3
A8
350
5F3D
  3
A9
350
5F3E
  3
B0
350
5F3F
  3
B1
350
5F40
  3
B2
350
5F41
  3
B3
350
5F42
  3
B4
350
5F43
  3
B5
350
5F44
  3
B6
350
5F45
  3
B7
350
5F46
  3
B8
350
5F47
  3
B9
350
5F48
  3
C0
350
5F49
  3
C1
350
5F4A
  3
C2
350
5F4B
  3
C3
350
5F4C
  3
C4
350
5F4D
  3
C5
350
5F4E
  3
C6
350
5F4F
  3
C7
350
5F50
  3
C8
350
5F51
  3
C9
350
5F52
  3
D0
350
5F53
  3
D1
350
5F54
  3
D2
350
5F55
  0
DICTIONARY
  5
5F65
102
{ACAD_REACTORS
330
5F06
102
}
330
5F06
100
AcDbDictionary
281
     1
  3
Standard
350
5F66
  0
DICTIONARY
  5
5F23
102
{ACAD_REACTORS
330
5F06
102
}
330
5F06
100
AcDbDictionary
281
     1
  3
2dWireframe
350
5F29
  3
3D Hidden
350
5F2B
  3
3dWireframe
350
5F2A
  3
Basic
350
5F28
  3
Brighten
350
5F2F
  3
ColorChange
350
5F33
  3
Conceptual
350
5F2C
  3
Dim
350
5F2E
  3
Facepattern
350
5F32
  3
Flat
350
5F24
  3
FlatWithEdges
350
5F25
  3
Gouraud
350
5F26
  3
GouraudWithEdges
350
5F27
  3
Linepattern
350
5F31
  3
Realistic
350
5F2D
  3
Thicken
350
5F30
  0
XRECORD
  5
6F70
102
{ACAD_REACTORS
330
5F06
102
}
330
5F06
100
AcDbXrecord
280
     1
 90
        1
330
5F66
  0
DICTIONARY
  5
6102
102
{ACAD_REACTORS
330
5F06
102
}
330
5F06
100
AcDbDictionary
281
     1
  3
CANNOSCALE
350
6105
  3
CMLEADERSTYLE
350
6104
  3
CTABLESTYLE
350
6103
  3
DIMASSOC
350
6108
  3
INDEXCTL
350
6107
  3
SORTENTS
350
6106
  0
XRECORD
  5
8C17
102
{ACAD_REACTORS
330
5F06
102
}
330
5F06
100
AcDbXrecord
280
     1
  1
DWGPROPS COOKIE
  2

  3

  4

  6

  7

  8
Administrator
  9

300
=
301
=
302
=
303
=
304
=
305
=
306
=
307
=
308
=
309
=
 40
0.9712637615740741
 41
2455434.724808658
 42
2458649.57746669
  1

 90
        0
  0
DICTIONARY
  5
60F2
102
{ACAD_REACTORS
330
5F06
102
}
330
5F06
100
AcDbDictionary
281
     1
  3
lxx_dimth
350
60F3
  0
DICTIONARY
  5
61B8
102
{ACAD_REACTORS
330
61B7
102
}
330
61B7
100
AcDbDictionary
281
     1
  0
XRECORD
  5
60F5
102
{ACAD_REACTORS
330
60F4
102
}
330
60F4
100
AcDbXrecord
280
     1
290
     1
  0
XRECORD
  5
60F7
102
{ACAD_REACTORS
330
60F6
102
}
330
60F6
100
AcDbXrecord
280
     1
290
     1
  0
XRECORD
  5
60F9
102
{ACAD_REACTORS
330
60F8
102
}
330
60F8
100
AcDbXrecord
280
     1
290
     1
  0
XRECORD
  5
60FB
102
{ACAD_REACTORS
330
60FA
102
}
330
60FA
100
AcDbXrecord
280
     1
290
     1
  0
XRECORD
  5
60FD
102
{ACAD_REACTORS
330
60FC
102
}
330
60FC
100
AcDbXrecord
280
     1
290
     1
  0
SORTENTSTABLE
  5
6550
102
{ACAD_REACTORS
330
654F
102
}
330
654F
100
AcDbSortentsTable
330
5F6E
  0
DIMASSOC
  5
89B5
102
{ACAD_REACTORS
330
89B4
102
}
330
89B4
100
AcDbDimAssoc
330
89B3
 90
        3
 70
     0
 71
     0
  1
AcDbOsnapPointRef
 72
    13
331
89AE
 73
     2
 91
        0
 40
0.0
 10
0.0
 20
0.0
 30
2.000000000000000E+50
 75
     0
  1
AcDbOsnapPointRef
 72
     1
331
89AE
 73
     2
 91
        0
 40
1.0
 10
0.0
 20
0.0
 30
2.000000000000000E+50
 75
     0
  0
DIMASSOC
  5
89B8
102
{ACAD_REACTORS
330
89B7
102
}
330
89B7
100
AcDbDimAssoc
330
89B6
 90
        3
 70
     0
 71
     0
  1
AcDbOsnapPointRef
 72
     1
331
89AE
 73
     2
 91
        0
 40
1.0
 10
0.0
 20
0.0
 30
2.000000000000000E+50
 75
     0
  1
AcDbOsnapPointRef
 72
     8
331
89AC
 73
     2
 91
        0
 40
0.0
 10
0.0
 20
0.0
 30
0.0
 75
     1
  1
AcDbOsnapPointRef
 72
     1
331
89AE
 73
     2
 91
        0
 40
1.0
 10
0.0
 20
0.0
 30
2.000000000000000E+50
 75
     0
  0
DIMASSOC
  5
89BB
102
{ACAD_REACTORS
330
89BA
102
}
330
89BA
100
AcDbDimAssoc
330
89B9
 90
        3
 70
     0
 71
     0
  1
AcDbOsnapPointRef
 72
    10
331
89A7
 73
     2
 91
        0
 40
0.944869018579147
 10
0.0
 20
0.0
 30
0.0
 75
     0
  1
AcDbOsnapPointRef
 72
     8
331
89A2
 73
     2
 91
        0
 40
0.0551309814208528
 10
0.0
 20
0.0
 30
0.0
 75
     1
  1
AcDbOsnapPointRef
 72
    10
331
89A7
 73
     2
 91
        0
 40
0.944869018579147
 10
0.0
 20
0.0
 30
0.0
 75
     0
  0
DIMASSOC
  5
89BE
102
{ACAD_REACTORS
330
89BD
102
}
330
89BD
100
AcDbDimAssoc
330
89BC
 90
        3
 70
     0
 71
     0
  1
AcDbOsnapPointRef
 72
    10
331
89B0
 73
     2
 91
        0
 40
0.9690788331129475
 10
0.0
 20
0.0
 30
0.0
 75
     0
  1
AcDbOsnapPointRef
 72
     8
331
89AF
 73
     2
 91
        0
 40
0.0309211668870524
 10
0.0
 20
0.0
 30
0.0
 75
     1
  1
AcDbOsnapPointRef
 72
    10
331
89B0
 73
     2
 91
        0
 40
0.9690788331129475
 10
0.0
 20
0.0
 30
0.0
 75
     0
  0
DIMASSOC
  5
89FE
102
{ACAD_REACTORS
330
89FD
102
}
330
89FD
100
AcDbDimAssoc
330
89FC
 90
        1
 70
     0
 71
     0
  1
AcDbOsnapPointRef
 72
     1
331
89ED
 73
     2
 91
        0
 40
0.9999999999999998
 10
0.0
 20
0.0
 30
2.000000000000000E+50
 75
     0
  0
DIMASSOC
  5
8A02
102
{ACAD_REACTORS
330
8A01
102
}
330
8A01
100
AcDbDimAssoc
330
8A00
 90
        3
 70
     0
 71
     0
  1
AcDbOsnapPointRef
 72
     1
331
89A1
 73
     2
 91
        0
 40
1.0
 10
0.0
 20
0.0
 30
2.000000000000000E+50
 75
     0
  1
AcDbOsnapPointRef
 72
    13
331
89AB
 73
     2
 91
        0
 40
0.0
 10
0.0
 20
0.0
 30
2.000000000000000E+50
 75
     0
  0
DIMASSOC
  5
8A05
102
{ACAD_REACTORS
330
8A04
102
}
330
8A04
100
AcDbDimAssoc
330
8A03
 90
        3
 70
     0
 71
     0
  1
AcDbOsnapPointRef
 72
     6
331
89AB
 73
     2
 91
        0
 40
1.0
 10
0.0
 20
0.0
 30
0.0
332
89AA
 74
     2
 92
        0
 75
     0
  1
AcDbOsnapPointRef
 72
     6
331
89A5
 73
     2
 91
        0
 40
0.9999999999995631
 10
0.0
 20
0.0
 30
0.0
332
89A3
 74
     2
 92
        0
 75
     0
  0
DIMASSOC
  5
8A0C
102
{ACAD_REACTORS
330
8A0B
102
}
330
8A0B
100
AcDbDimAssoc
330
8A0A
 90
        3
 70
     0
 71
     0
  1
AcDbOsnapPointRef
 72
     1
331
8A09
 73
     2
 91
        3
 40
1.0
 10
0.0
 20
0.0
 30
2.000000000000000E+50
 75
     0
  1
AcDbOsnapPointRef
 72
     1
331
8A09
 73
     2
 91
        2
 40
1.0
 10
0.0
 20
0.0
 30
2.000000000000000E+50
 75
     0
  0
DIMASSOC
  5
8A0F
102
{ACAD_REACTORS
330
8A0E
102
}
330
8A0E
100
AcDbDimAssoc
330
8A0D
 90
        2
 70
     0
 71
     0
  1
AcDbOsnapPointRef
 72
     1
331
8A09
 73
     2
 91
        1
 40
1.0
 10
0.0
 20
0.0
 30
2.000000000000000E+50
 75
     0
  0
XRECORD
  5
8C19
102
{ACAD_REACTORS
330
8C18
102
}
330
8C18
100
AcDbXrecord
280
     1
 40
1.25
  0
XRECORD
  5
8C1A
102
{ACAD_REACTORS
330
8C18
102
}
330
8C18
100
AcDbXrecord
280
     1
 40
1.570796326794896
  0
XRECORD
  5
8C1C
102
{ACAD_REACTORS
330
8C18
102
}
330
8C18
100
AcDbXrecord
280
     1
340
5F5E
  0
XRECORD
  5
8C1D
102
{ACAD_REACTORS
330
8C18
102
}
330
8C18
100
AcDbXrecord
280
     1
340
5F5E
  0
XRECORD
  5
8C1B
102
{ACAD_REACTORS
330
8C18
102
}
330
8C18
100
AcDbXrecord
280
     1
340
5F5E
  0
LAYOUT
  5
5F71
102
{ACAD_XDICTIONARY
360
8C21
102
}
102
{ACAD_REACTORS
330
5F63
102
}
330
5F63
100
AcDbPlotSettings
  1

  2
\\192.168.1.64\Canon LBP2900
  4
A4
  6

 40
5.873749732971191
 41
6.805061340332031
 42
5.873748779296875
 43
4.857757568359375
 44
209.9733276367186
 45
296.9259948730469
 46
0.0
 47
0.0
 48
0.0
 49
0.0
140
0.0
141
0.0
142
1.0
143
15.879357507287
 70
 11952
 72
     0
 73
     1
 74
     0
  7

 75
     0
147
0.0629748401055334
148
-27226.80690415248
149
-2266.514499453142
100
AcDbLayout
  1
Model
 70
     1
 71
     0
 10
0.0
 20
0.0
 11
12.0
 21
9.0
 12
0.0
 22
0.0
 32
0.0
 14
0.0
 24
0.0
 34
0.0
 15
0.0
 25
0.0
 35
0.0
146
0.0
 13
0.0
 23
0.0
 33
0.0
 16
1.0
 26
0.0
 36
0.0
 17
0.0
 27
1.0
 37
0.0
 76
     0
330
5F6E
331
5F73
1001
ACAD_PSEXT
1000
\\192.168.1.64\Canon LBP2900
1000
Canon LBP2900
1000
\\192.168.1.64
1000

1070
     0
  0
LAYOUT
  5
5F6D
102
{ACAD_XDICTIONARY
360
8C1F
102
}
102
{ACAD_REACTORS
330
5F63
102
}
330
5F63
100
AcDbPlotSettings
  1

  2
\\192.168.1.64\Canon LBP2900
  4

  6

 40
0.0
 41
0.0
 42
0.0
 43
0.0
 44
0.0
 45
0.0
 46
0.0
 47
0.0
 48
0.0
 49
0.0
140
0.0
141
0.0
142
1.0
143
1.0
 70
   688
 72
     0
 73
     0
 74
     5
  7

 75
    16
147
1.0
148
0.0
149
0.0
100
AcDbLayout
  1
布局1
 70
     1
 71
     1
 10
0.0
 20
0.0
 11
12.0
 21
9.0
 12
0.0
 22
0.0
 32
0.0
 14
1.000000000000000E+20
 24
1.000000000000000E+20
 34
1.000000000000000E+20
 15
-1.000000000000000E+20
 25
-1.000000000000000E+20
 35
-1.000000000000000E+20
146
0.0
 13
0.0
 23
0.0
 33
0.0
 16
1.0
 26
0.0
 36
0.0
 17
0.0
 27
1.0
 37
0.0
 76
     0
330
5F6A
  0
MATERIAL
  5
5F13
102
{ACAD_XDICTIONARY
360
5F14
102
}
102
{ACAD_REACTORS
330
5F0A
102
}
330
5F0A
100
AcDbMaterial
  1
ByBlock
 72
     0
 43
0.0208333333333333
 43
0.0
 43
0.0
 43
0.0
 43
0.0
 43
0.0208333333333333
 43
0.0
 43
0.0
 43
0.0
 43
0.0
 43
1.0
 43
0.0
 43
0.0
 43
0.0
 43
0.0
 43
1.0
 77
     0
 47
0.0208333333333333
 47
0.0
 47
0.0
 47
0.0
 47
0.0
 47
0.0208333333333333
 47
0.0
 47
0.0
 47
0.0
 47
0.0
 47
1.0
 47
0.0
 47
0.0
 47
0.0
 47
0.0
 47
1.0
171
     0
 49
0.0208333333333333
 49
0.0
 49
0.0
 49
0.0
 49
0.0
 49
0.0208333333333333
 49
0.0
 49
0.0
 49
0.0
 49
0.0
 49
1.0
 49
0.0
 49
0.0
 49
0.0
 49
0.0
 49
1.0
175
     0
142
0.0208333333333333
142
0.0
142
0.0
142
0.0
142
0.0
142
0.0208333333333333
142
0.0
142
0.0
142
0.0
142
0.0
142
1.0
142
0.0
142
0.0
142
0.0
142
0.0
142
1.0
179
     0
144
0.0208333333333333
144
0.0
144
0.0
144
0.0
144
0.0
144
0.0208333333333333
144
0.0
144
0.0
144
0.0
144
0.0
144
1.0
144
0.0
144
0.0
144
0.0
144
0.0
144
1.0
147
0.0208333333333333
147
0.0
147
0.0
147
0.0
147
0.0
147
0.0208333333333333
147
0.0
147
0.0
147
0.0
147
0.0
147
1.0
147
0.0
147
0.0
147
0.0
147
0.0
147
1.0
  0
MATERIAL
  5
5F0B
102
{ACAD_XDICTIONARY
360
5F0C
102
}
102
{ACAD_REACTORS
330
5F0A
102
}
330
5F0A
100
AcDbMaterial
  1
ByLayer
 72
     0
 43
0.0208333333333333
 43
0.0
 43
0.0
 43
0.0
 43
0.0
 43
0.0208333333333333
 43
0.0
 43
0.0
 43
0.0
 43
0.0
 43
1.0
 43
0.0
 43
0.0
 43
0.0
 43
0.0
 43
1.0
 77
     0
 47
0.0208333333333333
 47
0.0
 47
0.0
 47
0.0
 47
0.0
 47
0.0208333333333333
 47
0.0
 47
0.0
 47
0.0
 47
0.0
 47
1.0
 47
0.0
 47
0.0
 47
0.0
 47
0.0
 47
1.0
171
     0
 49
0.0208333333333333
 49
0.0
 49
0.0
 49
0.0
 49
0.0
 49
0.0208333333333333
 49
0.0
 49
0.0
 49
0.0
 49
0.0
 49
1.0
 49
0.0
 49
0.0
 49
0.0
 49
0.0
 49
1.0
175
     0
142
0.0208333333333333
142
0.0
142
0.0
142
0.0
142
0.0
142
0.0208333333333333
142
0.0
142
0.0
142
0.0
142
0.0
142
1.0
142
0.0
142
0.0
142
0.0
142
0.0
142
1.0
179
     0
144
0.0208333333333333
144
0.0
144
0.0
144
0.0
144
0.0
144
0.0208333333333333
144
0.0
144
0.0
144
0.0
144
0.0
144
1.0
144
0.0
144
0.0
144
0.0
144
0.0
144
1.0
147
0.0208333333333333
147
0.0
147
0.0
147
0.0
147
0.0
147
0.0208333333333333
147
0.0
147
0.0
147
0.0
147
0.0
147
1.0
147
0.0
147
0.0
147
0.0
147
0.0
147
1.0
  0
MATERIAL
  5
5F1B
102
{ACAD_XDICTIONARY
360
5F1C
102
}
102
{ACAD_REACTORS
330
5F0A
102
}
330
5F0A
100
AcDbMaterial
  1
Global
 72
     0
 43
0.0208333333333333
 43
0.0
 43
0.0
 43
0.0
 43
0.0
 43
0.0208333333333333
 43
0.0
 43
0.0
 43
0.0
 43
0.0
 43
1.0
 43
0.0
 43
0.0
 43
0.0
 43
0.0
 43
1.0
 77
     0
 47
0.0208333333333333
 47
0.0
 47
0.0
 47
0.0
 47
0.0
 47
0.0208333333333333
 47
0.0
 47
0.0
 47
0.0
 47
0.0
 47
1.0
 47
0.0
 47
0.0
 47
0.0
 47
0.0
 47
1.0
171
     0
 49
0.0208333333333333
 49
0.0
 49
0.0
 49
0.0
 49
0.0
 49
0.0208333333333333
 49
0.0
 49
0.0
 49
0.0
 49
0.0
 49
1.0
 49
0.0
 49
0.0
 49
0.0
 49
0.0
 49
1.0
175
     0
142
0.0208333333333333
142
0.0
142
0.0
142
0.0
142
0.0
142
0.0208333333333333
142
0.0
142
0.0
142
0.0
142
0.0
142
1.0
142
0.0
142
0.0
142
0.0
142
0.0
142
1.0
179
     0
144
0.0208333333333333
144
0.0
144
0.0
144
0.0
144
0.0
144
0.0208333333333333
144
0.0
144
0.0
144
0.0
144
0.0
144
1.0
144
0.0
144
0.0
144
0.0
144
0.0
144
1.0
147
0.0208333333333333
147
0.0
147
0.0
147
0.0
147
0.0
147
0.0208333333333333
147
0.0
147
0.0
147
0.0
147
0.0
147
1.0
147
0.0
147
0.0
147
0.0
147
0.0
147
1.0
  0
MLEADERSTYLE
  5
5F68
102
{ACAD_REACTORS
330
5F67
102
}
330
5F67
100
AcDbMLeaderStyle
170
     2
171
     1
172
     0
 90
        2
 40
0.0
 41
0.0
173
     1
 91
-1056964608
340
5F5C
 92
       -2
290
     1
 42
0.09
291
     1
 43
0.36
  3
Standard
 44
0.18
300

342
5F57
174
     1
178
     6
175
     1
176
     0
 93
-1056964608
 45
0.18
292
     0
297
     0
 46
0.18
 94
-1056964608
 47
1.0
 49
1.0
140
1.0
293
     1
141
0.0
294
     1
177
     0
142
1.0
295
     0
296
     0
143
0.125
1001
ACAD_MLEADERVER
1070
     2
  0
MLINESTYLE
  5
5F61
102
{ACAD_REACTORS
330
5F60
102
}
330
5F60
100
AcDbMlineStyle
  2
STANDARD
 70
     0
  3

 62
   256
 51
90.0
 52
90.0
 71
     2
 49
0.5
 62
   256
  6
BYLAYER
 49
-0.5
 62
   256
  6
BYLAYER
  0
ACDBPLACEHOLDER
  5
5F09
102
{ACAD_REACTORS
330
5F08
102
}
330
5F08
  0
SCALE
  5
5F35
102
{ACAD_REACTORS
330
5F34
102
}
330
5F34
100
AcDbScale
 70
     0
300
1:1
140
1.0
141
1.0
290
     1
  0
SCALE
  5
5F36
102
{ACAD_REACTORS
330
5F34
102
}
330
5F34
100
AcDbScale
 70
     0
300
1:2
140
1.0
141
2.0
290
     0
  0
SCALE
  5
5F37
102
{ACAD_REACTORS
330
5F34
102
}
330
5F34
100
AcDbScale
 70
     0
300
1:4
140
1.0
141
4.0
290
     0
  0
SCALE
  5
5F38
102
{ACAD_REACTORS
330
5F34
102
}
330
5F34
100
AcDbScale
 70
     0
300
1:5
140
1.0
141
5.0
290
     0
  0
SCALE
  5
5F39
102
{ACAD_REACTORS
330
5F34
102
}
330
5F34
100
AcDbScale
 70
     0
300
1:8
140
1.0
141
8.0
290
     0
  0
SCALE
  5
5F3A
102
{ACAD_REACTORS
330
5F34
102
}
330
5F34
100
AcDbScale
 70
     0
300
1:10
140
1.0
141
10.0
290
     0
  0
SCALE
  5
5F3B
102
{ACAD_REACTORS
330
5F34
102
}
330
5F34
100
AcDbScale
 70
     0
300
1:16
140
1.0
141
16.0
290
     0
  0
SCALE
  5
5F3C
102
{ACAD_REACTORS
330
5F34
102
}
330
5F34
100
AcDbScale
 70
     0
300
1:20
140
1.0
141
20.0
290
     0
  0
SCALE
  5
5F3D
102
{ACAD_REACTORS
330
5F34
102
}
330
5F34
100
AcDbScale
 70
     0
300
1:30
140
1.0
141
30.0
290
     0
  0
SCALE
  5
5F3E
102
{ACAD_REACTORS
330
5F34
102
}
330
5F34
100
AcDbScale
 70
     0
300
1:40
140
1.0
141
40.0
290
     0
  0
SCALE
  5
5F3F
102
{ACAD_REACTORS
330
5F34
102
}
330
5F34
100
AcDbScale
 70
     0
300
1:50
140
1.0
141
50.0
290
     0
  0
SCALE
  5
5F40
102
{ACAD_REACTORS
330
5F34
102
}
330
5F34
100
AcDbScale
 70
     0
300
1:100
140
1.0
141
100.0
290
     0
  0
SCALE
  5
5F41
102
{ACAD_REACTORS
330
5F34
102
}
330
5F34
100
AcDbScale
 70
     0
300
2:1
140
2.0
141
1.0
290
     0
  0
SCALE
  5
5F42
102
{ACAD_REACTORS
330
5F34
102
}
330
5F34
100
AcDbScale
 70
     0
300
4:1
140
4.0
141
1.0
290
     0
  0
SCALE
  5
5F43
102
{ACAD_REACTORS
330
5F34
102
}
330
5F34
100
AcDbScale
 70
     0
300
8:1
140
8.0
141
1.0
290
     0
  0
SCALE
  5
5F44
102
{ACAD_REACTORS
330
5F34
102
}
330
5F34
100
AcDbScale
 70
     0
300
10:1
140
10.0
141
1.0
290
     0
  0
SCALE
  5
5F45
102
{ACAD_REACTORS
330
5F34
102
}
330
5F34
100
AcDbScale
 70
     0
300
100:1
140
100.0
141
1.0
290
     0
  0
SCALE
  5
5F46
102
{ACAD_REACTORS
330
5F34
102
}
330
5F34
100
AcDbScale
 70
     0
300
1/128" = 1'-0"
140
0.0078125
141
12.0
290
     0
  0
SCALE
  5
5F47
102
{ACAD_REACTORS
330
5F34
102
}
330
5F34
100
AcDbScale
 70
     0
300
1/64" = 1'-0"
140
0.015625
141
12.0
290
     0
  0
SCALE
  5
5F48
102
{ACAD_REACTORS
330
5F34
102
}
330
5F34
100
AcDbScale
 70
     0
300
1/32" = 1'-0"
140
0.03125
141
12.0
290
     0
  0
SCALE
  5
5F49
102
{ACAD_REACTORS
330
5F34
102
}
330
5F34
100
AcDbScale
 70
     0
300
1/16" = 1'-0"
140
0.0625
141
12.0
290
     0
  0
SCALE
  5
5F4A
102
{ACAD_REACTORS
330
5F34
102
}
330
5F34
100
AcDbScale
 70
     0
300
3/32" = 1'-0"
140
0.09375
141
12.0
290
     0
  0
SCALE
  5
5F4B
102
{ACAD_REACTORS
330
5F34
102
}
330
5F34
100
AcDbScale
 70
     0
300
1/8" = 1'-0"
140
0.125
141
12.0
290
     0
  0
SCALE
  5
5F4C
102
{ACAD_REACTORS
330
5F34
102
}
330
5F34
100
AcDbScale
 70
     0
300
3/16" = 1'-0"
140
0.1875
141
12.0
290
     0
  0
SCALE
  5
5F4D
102
{ACAD_REACTORS
330
5F34
102
}
330
5F34
100
AcDbScale
 70
     0
300
1/4" = 1'-0"
140
0.25
141
12.0
290
     0
  0
SCALE
  5
5F4E
102
{ACAD_REACTORS
330
5F34
102
}
330
5F34
100
AcDbScale
 70
     0
300
3/8" = 1'-0"
140
0.375
141
12.0
290
     0
  0
SCALE
  5
5F4F
102
{ACAD_REACTORS
330
5F34
102
}
330
5F34
100
AcDbScale
 70
     0
300
1/2" = 1'-0"
140
0.5
141
12.0
290
     0
  0
SCALE
  5
5F50
102
{ACAD_REACTORS
330
5F34
102
}
330
5F34
100
AcDbScale
 70
     0
300
3/4" = 1'-0"
140
0.75
141
12.0
290
     0
  0
SCALE
  5
5F51
102
{ACAD_REACTORS
330
5F34
102
}
330
5F34
100
AcDbScale
 70
     0
300
1" = 1'-0"
140
1.0
141
12.0
290
     0
  0
SCALE
  5
5F52
102
{ACAD_REACTORS
330
5F34
102
}
330
5F34
100
AcDbScale
 70
     0
300
1-1/2" = 1'-0"
140
1.5
141
12.0
290
     0
  0
SCALE
  5
5F53
102
{ACAD_REACTORS
330
5F34
102
}
330
5F34
100
AcDbScale
 70
     0
300
3" = 1'-0"
140
3.0
141
12.0
290
     0
  0
SCALE
  5
5F54
102
{ACAD_REACTORS
330
5F34
102
}
330
5F34
100
AcDbScale
 70
     0
300
6" = 1'-0"
140
6.0
141
12.0
290
     0
  0
SCALE
  5
5F55
102
{ACAD_REACTORS
330
5F34
102
}
330
5F34
100
AcDbScale
 70
     0
300
1'-0" = 1'-0"
140
12.0
141
12.0
290
     0
  0
TABLESTYLE
  5
5F66
102
{ACAD_XDICTIONARY
360
6F6E
102
}
102
{ACAD_REACTORS
330
5F65
102
}
330
5F65
100
AcDbTableStyle
  3
Standard
 70
     0
 71
     0
 40
0.06
 41
0.06
280
     0
281
     0
  7
STANDARD
140
0.18
170
     2
 62
     0
 63
     7
283
     0
274
    -2
284
     1
 64
     0
275
    -2
285
     1
 65
     0
276
    -2
286
     1
 66
     0
277
    -2
287
     1
 67
     0
278
    -2
288
     1
 68
     0
279
    -2
289
     1
 69
     0
  7
STANDARD
140
0.25
170
     5
 62
     0
 63
     7
283
     0
274
    -2
284
     1
 64
     0
275
    -2
285
     1
 65
     0
276
    -2
286
     1
 66
     0
277
    -2
287
     1
 67
     0
278
    -2
288
     1
 68
     0
279
    -2
289
     1
 69
     0
  7
STANDARD
140
0.18
170
     5
 62
     0
 63
     7
283
     0
274
    -2
284
     1
 64
     0
275
    -2
285
     1
 65
     0
276
    -2
286
     1
 66
     0
277
    -2
287
     1
 67
     0
278
    -2
288
     1
 68
     0
279
    -2
289
     1
 69
     0
  0
VISUALSTYLE
  5
5F29
102
{ACAD_REACTORS
330
5F23
102
}
330
5F23
100
AcDbVisualStyle
  2
2dWireframe
 70
     4
 71
     0
 72
     2
 73
     0
 90
        0
 40
-0.6
 41
-30.0
 62
     5
 63
     7
 74
     1
 91
        4
 64
     7
 65
   257
 75
     1
175
     1
 42
1.0
 92
        0
 66
   257
 43
1.0
 76
     1
 77
     6
 78
     2
 67
     7
 79
     5
170
     0
171
     0
290
     0
174
     0
 93
        1
 44
0.0
173
     0
291
     0
 45
0.0
1001
ACAD
1000
AcDbSavedByObjectVersion
1070
     0
1000
AcDbSavedByObjectVersion
1070
     0
1000
AcDbSavedByObjectVersion
1070
     0
1000
AcDbSavedByObjectVersion
1070
     0
1000
AcDbSavedByObjectVersion
1070
     0
  0
VISUALSTYLE
  5
5F2B
102
{ACAD_REACTORS
330
5F23
102
}
330
5F23
100
AcDbVisualStyle
  2
3D Hidden
 70
     6
 71
     1
 72
     2
 73
     2
 90
        0
 40
-0.6
 41
-30.0
 62
     5
 63
     7
 74
     2
 91
        2
 64
     7
 65
   257
 75
     2
175
     1
 42
40.0
 92
        0
 66
   257
 43
1.0
 76
     1
 77
     6
 78
     2
 67
     7
 79
     3
170
     0
171
     0
290
     0
174
     0
 93
        1
 44
0.0
173
     0
291
     0
 45
0.0
1001
ACAD
1000
AcDbSavedByObjectVersion
1070
     0
1000
AcDbSavedByObjectVersion
1070
     0
1000
AcDbSavedByObjectVersion
1070
     0
1000
AcDbSavedByObjectVersion
1070
     0
1000
AcDbSavedByObjectVersion
1070
     0
  0
VISUALSTYLE
  5
5F2A
102
{ACAD_REACTORS
330
5F23
102
}
330
5F23
100
AcDbVisualStyle
  2
3dWireframe
 70
     5
 71
     0
 72
     2
 73
     0
 90
        0
 40
-0.6
 41
-30.0
 62
     5
 63
     7
 74
     1
 91
        4
 64
     7
 65
   257
 75
     1
175
     1
 42
1.0
 92
        0
 66
   257
 43
1.0
 76
     1
 77
     6
 78
     2
 67
     7
 79
     5
170
     0
171
     0
290
     0
174
     0
 93
        1
 44
0.0
173
     0
291
     0
 45
0.0
1001
ACAD
1000
AcDbSavedByObjectVersion
1070
     0
1000
AcDbSavedByObjectVersion
1070
     0
1000
AcDbSavedByObjectVersion
1070
     0
1000
AcDbSavedByObjectVersion
1070
     0
1000
AcDbSavedByObjectVersion
1070
     0
  0
VISUALSTYLE
  5
5F28
102
{ACAD_REACTORS
330
5F23
102
}
330
5F23
100
AcDbVisualStyle
  2
Basic
 70
     7
 71
     1
 72
     0
 73
     1
 90
        0
 40
-0.6
 41
-30.0
 62
     5
 63
     7
 74
     0
 91
        4
 64
     7
 65
   257
 75
     1
175
     1
 42
1.0
 92
        8
 66
     7
 43
1.0
 76
     1
 77
     6
 78
     2
 67
     7
 79
     5
170
     0
171
     0
290
     0
174
     0
 93
        1
 44
0.0
173
     0
291
     1
 45
0.0
1001
ACAD
1000
AcDbSavedByObjectVersion
1070
     0
1000
AcDbSavedByObjectVersion
1070
     0
1000
AcDbSavedByObjectVersion
1070
     0
1000
AcDbSavedByObjectVersion
1070
     0
1000
AcDbSavedByObjectVersion
1070
     0
  0
VISUALSTYLE
  5
5F2F
102
{ACAD_REACTORS
330
5F23
102
}
330
5F23
100
AcDbVisualStyle
  2
Brighten
 70
    12
 71
     2
 72
     2
 73
     0
 90
        0
 40
-0.6
 41
-30.0
 62
     5
 63
     7
 74
     1
 91
        4
 64
     7
 65
   257
 75
     1
175
     1
 42
1.0
 92
        8
 66
     7
 43
1.0
 76
     1
 77
     6
 78
     2
 67
     7
 79
     5
170
     0
171
     0
290
     0
174
     0
 93
        1
 44
50.0
173
     0
291
     1
 45
0.0
1001
ACAD
1000
AcDbSavedByObjectVersion
1070
     0
1000
AcDbSavedByObjectVersion
1070
     0
1000
AcDbSavedByObjectVersion
1070
     0
1000
AcDbSavedByObjectVersion
1070
     0
1000
AcDbSavedByObjectVersion
1070
     0
  0
VISUALSTYLE
  5
5F33
102
{ACAD_REACTORS
330
5F23
102
}
330
5F23
100
AcDbVisualStyle
  2
ColorChange
 70
    16
 71
     2
 72
     2
 73
     3
 90
        0
 40
-0.6
 41
-30.0
 62
     5
 63
     8
 74
     1
 91
        4
 64
     7
 65
   257
 75
     1
175
     1
 42
1.0
 92
        8
 66
     8
 43
1.0
 76
     1
 77
     6
 78
     2
 67
     7
 79
     5
170
     0
171
     0
290
     0
174
     0
 93
        1
 44
0.0
173
     0
291
     1
 45
0.0
1001
ACAD
1000
AcDbSavedByObjectVersion
1070
     0
1000
AcDbSavedByObjectVersion
1070
     0
1000
AcDbSavedByObjectVersion
1070
     0
1000
AcDbSavedByObjectVersion
1070
     0
1000
AcDbSavedByObjectVersion
1070
     0
  0
VISUALSTYLE
  5
5F2C
102
{ACAD_REACTORS
330
5F23
102
}
330
5F23
100
AcDbVisualStyle
  2
Conceptual
 70
     9
 71
     3
 72
     2
 73
     0
 90
        0
 40
-0.6
 41
-30.0
 62
     5
 63
     7
 74
     2
 91
        2
 64
     7
 65
   257
 75
     1
175
     1
 42
40.0
 92
        8
 66
     7
 43
1.0
 76
     1
 77
     6
 78
     2
 67
     7
 79
     3
170
     0
171
     0
290
     0
174
     0
 93
        1
 44
0.0
173
     0
291
     0
 45
0.0
1001
ACAD
1000
AcDbSavedByObjectVersion
1070
     0
1000
AcDbSavedByObjectVersion
1070
     0
1000
AcDbSavedByObjectVersion
1070
     0
1000
AcDbSavedByObjectVersion
1070
     0
1000
AcDbSavedByObjectVersion
1070
     0
  0
VISUALSTYLE
  5
5F2E
102
{ACAD_REACTORS
330
5F23
102
}
330
5F23
100
AcDbVisualStyle
  2
Dim
 70
    11
 71
     2
 72
     2
 73
     0
 90
        0
 40
-0.6
 41
-30.0
 62
     5
 63
     7
 74
     1
 91
        4
 64
     7
 65
   257
 75
     1
175
     1
 42
1.0
 92
        8
 66
     7
 43
1.0
 76
     1
 77
     6
 78
     2
 67
     7
 79
     5
170
     0
171
     0
290
     0
174
     0
 93
        1
 44
-50.0
173
     0
291
     1
 45
0.0
1001
ACAD
1000
AcDbSavedByObjectVersion
1070
     0
1000
AcDbSavedByObjectVersion
1070
     0
1000
AcDbSavedByObjectVersion
1070
     0
1000
AcDbSavedByObjectVersion
1070
     0
1000
AcDbSavedByObjectVersion
1070
     0
  0
VISUALSTYLE
  5
5F32
102
{ACAD_REACTORS
330
5F23
102
}
330
5F23
100
AcDbVisualStyle
  2
Facepattern
 70
    15
 71
     2
 72
     2
 73
     0
 90
        0
 40
-0.6
 41
-30.0
 62
     5
 63
     7
 74
     1
 91
        4
 64
     7
 65
   257
 75
     1
175
     1
 42
1.0
 92
        8
 66
     7
 43
1.0
 76
     1
 77
     6
 78
     2
 67
     7
 79
     5
170
     0
171
     0
290
     0
174
     0
 93
        1
 44
0.0
173
     0
291
     1
 45
0.0
1001
ACAD
1000
AcDbSavedByObjectVersion
1070
     0
1000
AcDbSavedByObjectVersion
1070
     0
1000
AcDbSavedByObjectVersion
1070
     0
1000
AcDbSavedByObjectVersion
1070
     0
1000
AcDbSavedByObjectVersion
1070
     0
  0
VISUALSTYLE
  5
5F24
102
{ACAD_REACTORS
330
5F23
102
}
330
5F23
100
AcDbVisualStyle
  2
Flat
 70
     0
 71
     2
 72
     1
 73
     1
 90
        2
 40
-0.6
 41
30.0
 62
     5
 63
     7
 74
     0
 91
        4
 64
     7
 65
   257
 75
     1
175
     1
 42
1.0
 92
        8
 66
     7
 43
1.0
 76
     1
 77
     6
 78
     2
 67
     7
 79
     5
170
     0
171
     0
290
     0
174
     0
 93
       13
 44
0.0
173
     0
291
     1
 45
0.0
1001
ACAD
1000
AcDbSavedByObjectVersion
1070
     0
1000
AcDbSavedByObjectVersion
1070
     0
1000
AcDbSavedByObjectVersion
1070
     0
1000
AcDbSavedByObjectVersion
1070
     0
1000
AcDbSavedByObjectVersion
1070
     0
  0
VISUALSTYLE
  5
5F25
102
{ACAD_REACTORS
330
5F23
102
}
330
5F23
100
AcDbVisualStyle
  2
FlatWithEdges
 70
     1
 71
     2
 72
     1
 73
     1
 90
        2
 40
-0.6
 41
30.0
 62
     5
 63
     7
 74
     1
 91
        4
 64
     7
 65
   257
 75
     1
175
     1
 42
1.0
 92
        0
 66
   257
 43
1.0
 76
     1
 77
     6
 78
     2
 67
     7
 79
     5
170
     0
171
     0
290
     0
174
     0
 93
       13
 44
0.0
173
     0
291
     1
 45
0.0
1001
ACAD
1000
AcDbSavedByObjectVersion
1070
     0
1000
AcDbSavedByObjectVersion
1070
     0
1000
AcDbSavedByObjectVersion
1070
     0
1000
AcDbSavedByObjectVersion
1070
     0
1000
AcDbSavedByObjectVersion
1070
     0
  0
VISUALSTYLE
  5
5F26
102
{ACAD_REACTORS
330
5F23
102
}
330
5F23
100
AcDbVisualStyle
  2
Gouraud
 70
     2
 71
     2
 72
     2
 73
     1
 90
        2
 40
-0.6
 41
30.0
 62
     5
 63
     7
 74
     0
 91
        4
 64
     7
 65
   257
 75
     1
175
     1
 42
1.0
 92
        0
 66
     7
 43
1.0
 76
     1
 77
     6
 78
     2
 67
     7
 79
     5
170
     0
171
     0
290
     0
174
     0
 93
       13
 44
0.0
173
     0
291
     1
 45
0.0
1001
ACAD
1000
AcDbSavedByObjectVersion
1070
     0
1000
AcDbSavedByObjectVersion
1070
     0
1000
AcDbSavedByObjectVersion
1070
     0
1000
AcDbSavedByObjectVersion
1070
     0
1000
AcDbSavedByObjectVersion
1070
     0
  0
VISUALSTYLE
  5
5F27
102
{ACAD_REACTORS
330
5F23
102
}
330
5F23
100
AcDbVisualStyle
  2
GouraudWithEdges
 70
     3
 71
     2
 72
     2
 73
     1
 90
        2
 40
-0.6
 41
30.0
 62
     5
 63
     7
 74
     1
 91
        4
 64
     7
 65
   257
 75
     1
175
     1
 42
1.0
 92
        0
 66
   257
 43
1.0
 76
     1
 77
     6
 78
     2
 67
     7
 79
     5
170
     0
171
     0
290
     0
174
     0
 93
       13
 44
0.0
173
     0
291
     1
 45
0.0
1001
ACAD
1000
AcDbSavedByObjectVersion
1070
     0
1000
AcDbSavedByObjectVersion
1070
     0
1000
AcDbSavedByObjectVersion
1070
     0
1000
AcDbSavedByObjectVersion
1070
     0
1000
AcDbSavedByObjectVersion
1070
     0
  0
VISUALSTYLE
  5
5F31
102
{ACAD_REACTORS
330
5F23
102
}
330
5F23
100
AcDbVisualStyle
  2
Linepattern
 70
    14
 71
     2
 72
     2
 73
     0
 90
        0
 40
-0.6
 41
-30.0
 62
     5
 63
     7
 74
     1
 91
        4
 64
     7
 65
   257
 75
     7
175
     7
 42
1.0
 92
        8
 66
     7
 43
1.0
 76
     1
 77
     6
 78
     2
 67
     7
 79
     5
170
     0
171
     0
290
     0
174
     0
 93
        1
 44
0.0
173
     0
291
     1
 45
0.0
1001
ACAD
1000
AcDbSavedByObjectVersion
1070
     0
1000
AcDbSavedByObjectVersion
1070
     0
1000
AcDbSavedByObjectVersion
1070
     0
1000
AcDbSavedByObjectVersion
1070
     0
1000
AcDbSavedByObjectVersion
1070
     0
  0
VISUALSTYLE
  5
5F2D
102
{ACAD_REACTORS
330
5F23
102
}
330
5F23
100
AcDbVisualStyle
  2
Realistic
 70
     8
 71
     2
 72
     2
 73
     0
 90
        0
 40
-0.6
 41
-30.0
 62
     5
 63
     7
 74
     1
 91
        0
 64
     7
 65
   257
 75
     1
175
     1
 42
1.0
 92
        8
 66
     8
 43
1.0
 76
     1
 77
     6
 78
     2
 67
     7
 79
     5
170
     0
171
     0
290
     0
174
     0
 93
       13
 44
0.0
173
     0
291
     0
 45
0.0
1001
ACAD
1000
AcDbSavedByObjectVersion
1070
     0
1000
AcDbSavedByObjectVersion
1070
     0
1000
AcDbSavedByObjectVersion
1070
     0
1000
AcDbSavedByObjectVersion
1070
     0
1000
AcDbSavedByObjectVersion
1070
     0
  0
VISUALSTYLE
  5
5F30
102
{ACAD_REACTORS
330
5F23
102
}
330
5F23
100
AcDbVisualStyle
  2
Thicken
 70
    13
 71
     2
 72
     2
 73
     0
 90
        0
 40
-0.6
 41
-30.0
 62
     5
 63
     7
 74
     1
 91
        4
 64
     7
 65
   257
 75
     1
175
     1
 42
1.0
 92
       12
 66
     7
 43
1.0
 76
     1
 77
     6
 78
     2
 67
     7
 79
     5
170
     0
171
     0
290
     0
174
     0
 93
        1
 44
0.0
173
     0
291
     1
 45
0.0
1001
ACAD
1000
AcDbSavedByObjectVersion
1070
     0
1000
AcDbSavedByObjectVersion
1070
     0
1000
AcDbSavedByObjectVersion
1070
     0
1000
AcDbSavedByObjectVersion
1070
     0
1000
AcDbSavedByObjectVersion
1070
     0
  0
DICTIONARYVAR
  5
6105
102
{ACAD_REACTORS
330
6102
102
}
330
6102
100
DictionaryVariables
280
     0
  1
1:1
  0
DICTIONARYVAR
  5
6104
102
{ACAD_REACTORS
330
6102
102
}
330
6102
100
DictionaryVariables
280
     0
  1
STANDARD
  0
DICTIONARYVAR
  5
6103
102
{ACAD_REACTORS
330
6102
102
}
330
6102
100
DictionaryVariables
280
     0
  1
STANDARD
  0
DICTIONARYVAR
  5
6108
102
{ACAD_REACTORS
330
6102
102
}
330
6102
100
DictionaryVariables
280
     0
  1
1
  0
DICTIONARYVAR
  5
6107
102
{ACAD_REACTORS
330
6102
102
}
330
6102
100
DictionaryVariables
280
     0
  1
0
  0
DICTIONARYVAR
  5
6106
102
{ACAD_REACTORS
330
6102
102
}
330
6102
100
DictionaryVariables
280
     0
  1
127
  0
VLO-VL
  5
60F3
102
{ACAD_REACTORS
330
60F2
102
}
330
60F2
100
vlo_VL
 90
   -64512
 91
       12
 92
        1
 40
2.5
300
(&VLO-R . 0)
  0
DICTIONARY
  5
8C21
330
5F71
100
AcDbDictionary
280
     1
281
     1
  3
ACAD_XREC_ROUNDTRIP
360
8C22
  0
DICTIONARY
  5
8C1F
330
5F6D
100
AcDbDictionary
280
     1
281
     1
  3
ACAD_XREC_ROUNDTRIP
360
8C20
  0
DICTIONARY
  5
5F14
330
5F13
100
AcDbDictionary
280
     1
281
     1
  3
ACAD_XREC_ROUNDTRIP
360
6F73
  3
BUMPTILE
360
5F16
  3
DIFFUSETILE
360
5F15
  3
OPACITYTILE
360
5F19
  3
REFLECTIONTILE
360
5F18
  3
REFRACTIONTILE
360
5F1A
  3
SPECULARTILE
360
5F17
  0
DICTIONARY
  5
5F0C
330
5F0B
100
AcDbDictionary
280
     1
281
     1
  3
ACAD_XREC_ROUNDTRIP
360
6F72
  3
BUMPTILE
360
5F0E
  3
DIFFUSETILE
360
5F0D
  3
OPACITYTILE
360
5F11
  3
REFLECTIONTILE
360
5F10
  3
REFRACTIONTILE
360
5F12
  3
SPECULARTILE
360
5F0F
  0
DICTIONARY
  5
5F1C
330
5F1B
100
AcDbDictionary
280
     1
281
     1
  3
ACAD_XREC_ROUNDTRIP
360
6F74
  3
BUMPTILE
360
5F1E
  3
DIFFUSETILE
360
5F1D
  3
OPACITYTILE
360
5F21
  3
REFLECTIONTILE
360
5F20
  3
REFRACTIONTILE
360
5F22
  3
SPECULARTILE
360
5F1F
  0
DICTIONARY
  5
6F6E
330
5F66
100
AcDbDictionary
280
     1
281
     1
  3
ACAD_ROUNDTRIP_2008_TABLESTYLE_CELLSTYLEMAP
360
8C16
  3
ACAD_XREC_ROUNDTRIP
360
8C1E
  0
XRECORD
  5
8C22
102
{ACAD_REACTORS
330
8C21
102
}
330
8C21
100
AcDbXrecord
280
     1
102
SHADEPLOT
 70
     0
102
SHADEPLOTRESLEVEL
 70
     2
102
SHADEPLOTCUSTOMDPI
 70
   300
  0
XRECORD
  5
8C20
102
{ACAD_REACTORS
330
8C1F
102
}
330
8C1F
100
AcDbXrecord
280
     1
102
SHADEPLOT
 70
     0
102
SHADEPLOTRESLEVEL
 70
     2
102
SHADEPLOTCUSTOMDPI
 70
   300
  0
XRECORD
  5
6F73
102
{ACAD_REACTORS
330
5F14
102
}
330
5F14
100
AcDbXrecord
280
     1
102
MATERIAL
148
0.0
149
0.0
149
0.0
 93
        0
 94
      127
282
     0
 72
     0
 77
     0
171
     0
175
     0
179
     0
273
     0
  0
XRECORD
  5
5F16
102
{ACAD_REACTORS
330
5F14
102
}
330
5F14
100
AcDbXrecord
280
     1
270
     1
271
     1
  0
XRECORD
  5
5F15
102
{ACAD_REACTORS
330
5F14
102
}
330
5F14
100
AcDbXrecord
280
     1
270
     1
271
     1
  0
XRECORD
  5
5F19
102
{ACAD_REACTORS
330
5F14
102
}
330
5F14
100
AcDbXrecord
280
     1
270
     1
271
     1
  0
XRECORD
  5
5F18
102
{ACAD_REACTORS
330
5F14
102
}
330
5F14
100
AcDbXrecord
280
     1
270
     1
271
     1
  0
XRECORD
  5
5F1A
102
{ACAD_REACTORS
330
5F14
102
}
330
5F14
100
AcDbXrecord
280
     1
270
     1
271
     1
  0
XRECORD
  5
5F17
102
{ACAD_REACTORS
330
5F14
102
}
330
5F14
100
AcDbXrecord
280
     1
270
     1
271
     1
  0
XRECORD
  5
6F72
102
{ACAD_REACTORS
330
5F0C
102
}
330
5F0C
100
AcDbXrecord
280
     1
102
MATERIAL
148
0.0
149
0.0
149
0.0
 93
        0
 94
      127
282
     0
 72
     0
 77
     0
171
     0
175
     0
179
     0
273
     0
  0
XRECORD
  5
5F0E
102
{ACAD_REACTORS
330
5F0C
102
}
330
5F0C
100
AcDbXrecord
280
     1
270
     1
271
     1
  0
XRECORD
  5
5F0D
102
{ACAD_REACTORS
330
5F0C
102
}
330
5F0C
100
AcDbXrecord
280
     1
270
     1
271
     1
  0
XRECORD
  5
5F11
102
{ACAD_REACTORS
330
5F0C
102
}
330
5F0C
100
AcDbXrecord
280
     1
270
     1
271
     1
  0
XRECORD
  5
5F10
102
{ACAD_REACTORS
330
5F0C
102
}
330
5F0C
100
AcDbXrecord
280
     1
270
     1
271
     1
  0
XRECORD
  5
5F12
102
{ACAD_REACTORS
330
5F0C
102
}
330
5F0C
100
AcDbXrecord
280
     1
270
     1
271
     1
  0
XRECORD
  5
5F0F
102
{ACAD_REACTORS
330
5F0C
102
}
330
5F0C
100
AcDbXrecord
280
     1
270
     1
271
     1
  0
XRECORD
  5
6F74
102
{ACAD_REACTORS
330
5F1C
102
}
330
5F1C
100
AcDbXrecord
280
     1
102
MATERIAL
148
0.0
149
0.0
149
0.0
 93
        0
 94
      127
282
     0
 72
     0
 77
     0
171
     0
175
     0
179
     0
273
     0
  0
XRECORD
  5
5F1E
102
{ACAD_REACTORS
330
5F1C
102
}
330
5F1C
100
AcDbXrecord
280
     1
270
     1
271
     1
  0
XRECORD
  5
5F1D
102
{ACAD_REACTORS
330
5F1C
102
}
330
5F1C
100
AcDbXrecord
280
     1
270
     1
271
     1
  0
XRECORD
  5
5F21
102
{ACAD_REACTORS
330
5F1C
102
}
330
5F1C
100
AcDbXrecord
280
     1
270
     1
271
     1
  0
XRECORD
  5
5F20
102
{ACAD_REACTORS
330
5F1C
102
}
330
5F1C
100
AcDbXrecord
280
     1
270
     1
271
     1
  0
XRECORD
  5
5F22
102
{ACAD_REACTORS
330
5F1C
102
}
330
5F1C
100
AcDbXrecord
280
     1
270
     1
271
     1
  0
XRECORD
  5
5F1F
102
{ACAD_REACTORS
330
5F1C
102
}
330
5F1C
100
AcDbXrecord
280
     1
270
     1
271
     1
  0
CELLSTYLEMAP
  5
8C16
102
{ACAD_REACTORS
330
6F6E
102
}
330
6F6E
100
AcDbCellStyleMap
 90
        3
300
CELLSTYLE
  1
TABLEFORMAT_BEGIN
 90
        5
170
     1
 91
        0
 92
    32768
 62
   257
 93
        1
300
CONTENTFORMAT
  1
CONTENTFORMAT_BEGIN
 90
        0
 91
        0
 92
      512
 93
        0
300

 40
0.0
140
1.0
 94
        5
 62
     0
340
5F57
144
0.25
309
CONTENTFORMAT_END
171
     1
301
MARGIN
  1
CELLMARGIN_BEGIN
 40
0.06
 40
0.06
 40
0.06
 40
0.06
 40
0.18
 40
0.18
309
CELLMARGIN_END
 94
        6
 95
        1
302
GRIDFORMAT
  1
GRIDFORMAT_BEGIN
 90
        0
 91
        1
 62
     0
 92
       -2
340
0
 93
        0
 40
0.045
309
GRIDFORMAT_END
 95
        2
302
GRIDFORMAT
  1
GRIDFORMAT_BEGIN
 90
        0
 91
        1
 62
     0
 92
       -2
340
0
 93
        0
 40
0.045
309
GRIDFORMAT_END
 95
        4
302
GRIDFORMAT
  1
GRIDFORMAT_BEGIN
 90
        0
 91
        1
 62
     0
 92
       -2
340
0
 93
        0
 40
0.045
309
GRIDFORMAT_END
 95
        8
302
GRIDFORMAT
  1
GRIDFORMAT_BEGIN
 90
        0
 91
        1
 62
     0
 92
       -2
340
0
 93
        0
 40
0.045
309
GRIDFORMAT_END
 95
       16
302
GRIDFORMAT
  1
GRIDFORMAT_BEGIN
 90
        0
 91
        1
 62
     0
 92
       -2
340
0
 93
        0
 40
0.045
309
GRIDFORMAT_END
 95
       32
302
GRIDFORMAT
  1
GRIDFORMAT_BEGIN
 90
        0
 91
        1
 62
     0
 92
       -2
340
0
 93
        0
 40
0.045
309
GRIDFORMAT_END
309
TABLEFORMAT_END
  1
CELLSTYLE_BEGIN
 90
        1
 91
        1
300
_TITLE
309
CELLSTYLE_END
300
CELLSTYLE
  1
TABLEFORMAT_BEGIN
 90
        5
170
     1
 91
        0
 92
        0
 62
   257
 93
        1
300
CONTENTFORMAT
  1
CONTENTFORMAT_BEGIN
 90
        0
 91
        0
 92
      512
 93
        0
300

 40
0.0
140
1.0
 94
        5
 62
     0
340
5F57
144
0.18
309
CONTENTFORMAT_END
171
     1
301
MARGIN
  1
CELLMARGIN_BEGIN
 40
0.06
 40
0.06
 40
0.06
 40
0.06
 40
0.18
 40
0.18
309
CELLMARGIN_END
 94
        6
 95
        1
302
GRIDFORMAT
  1
GRIDFORMAT_BEGIN
 90
        0
 91
        1
 62
     0
 92
       -2
340
0
 93
        0
 40
0.045
309
GRIDFORMAT_END
 95
        2
302
GRIDFORMAT
  1
GRIDFORMAT_BEGIN
 90
        0
 91
        1
 62
     0
 92
       -2
340
0
 93
        0
 40
0.045
309
GRIDFORMAT_END
 95
        4
302
GRIDFORMAT
  1
GRIDFORMAT_BEGIN
 90
        0
 91
        1
 62
     0
 92
       -2
340
0
 93
        0
 40
0.045
309
GRIDFORMAT_END
 95
        8
302
GRIDFORMAT
  1
GRIDFORMAT_BEGIN
 90
        0
 91
        1
 62
     0
 92
       -2
340
0
 93
        0
 40
0.045
309
GRIDFORMAT_END
 95
       16
302
GRIDFORMAT
  1
GRIDFORMAT_BEGIN
 90
        0
 91
        1
 62
     0
 92
       -2
340
0
 93
        0
 40
0.045
309
GRIDFORMAT_END
 95
       32
302
GRIDFORMAT
  1
GRIDFORMAT_BEGIN
 90
        0
 91
        1
 62
     0
 92
       -2
340
0
 93
        0
 40
0.045
309
GRIDFORMAT_END
309
TABLEFORMAT_END
  1
CELLSTYLE_BEGIN
 90
        2
 91
        1
300
_HEADER
309
CELLSTYLE_END
300
CELLSTYLE
  1
TABLEFORMAT_BEGIN
 90
        5
170
     1
 91
        0
 92
        0
 62
   257
 93
        1
300
CONTENTFORMAT
  1
CONTENTFORMAT_BEGIN
 90
        0
 91
        0
 92
      512
 93
        0
300

 40
0.0
140
1.0
 94
        2
 62
     0
340
5F57
144
0.18
309
CONTENTFORMAT_END
171
     1
301
MARGIN
  1
CELLMARGIN_BEGIN
 40
0.06
 40
0.06
 40
0.06
 40
0.06
 40
0.18
 40
0.18
309
CELLMARGIN_END
 94
        6
 95
        1
302
GRIDFORMAT
  1
GRIDFORMAT_BEGIN
 90
        0
 91
        1
 62
     0
 92
       -2
340
0
 93
        0
 40
0.045
309
GRIDFORMAT_END
 95
        2
302
GRIDFORMAT
  1
GRIDFORMAT_BEGIN
 90
        0
 91
        1
 62
     0
 92
       -2
340
0
 93
        0
 40
0.045
309
GRIDFORMAT_END
 95
        4
302
GRIDFORMAT
  1
GRIDFORMAT_BEGIN
 90
        0
 91
        1
 62
     0
 92
       -2
340
0
 93
        0
 40
0.045
309
GRIDFORMAT_END
 95
        8
302
GRIDFORMAT
  1
GRIDFORMAT_BEGIN
 90
        0
 91
        1
 62
     0
 92
       -2
340
0
 93
        0
 40
0.045
309
GRIDFORMAT_END
 95
       16
302
GRIDFORMAT
  1
GRIDFORMAT_BEGIN
 90
        0
 91
        1
 62
     0
 92
       -2
340
0
 93
        0
 40
0.045
309
GRIDFORMAT_END
 95
       32
302
GRIDFORMAT
  1
GRIDFORMAT_BEGIN
 90
        0
 91
        1
 62
     0
 92
       -2
340
0
 93
        0
 40
0.045
309
GRIDFORMAT_END
309
TABLEFORMAT_END
  1
CELLSTYLE_BEGIN
 90
        3
 91
        2
300
_DATA
309
CELLSTYLE_END
  0
XRECORD
  5
8C1E
102
{ACAD_REACTORS
330
6F6E
102
}
330
6F6E
100
AcDbXrecord
280
     1
102
ACAD_ROUNDTRIP_PRE2007_TABLESTYLE
 90
      512
 91
        0
  1

 92
      512
 93
        0
  2

 94
      512
 95
        0
  3

  0
ENDSEC
  0
EOF
